<?xml version="1.0" standalone="no"?>
<!DOCTYPE svg PUBLIC "-//W3C//DTD SVG 1.1//EN" "http://www.w3.org/Graphics/SVG/1.1/DTD/svg11.dtd" >
<svg xmlns="http://www.w3.org/2000/svg">
<metadata>Generated by IcoMoon</metadata>
<defs>
<font id="icomoon" horiz-adv-x="1024">
<font-face units-per-em="1024" ascent="960" descent="-64" />
<missing-glyph horiz-adv-x="1024" />
<glyph unicode="&#x20;" d="" horiz-adv-x="512" />
<glyph unicode="&#xe000;" d="M976.864 746.64l-145.692 0.004-162.834-439.194c-1.43-7.212-5-12.982-10.714-17.308-8.57-11.538-20.712-17.308-36.424-17.308h-441.368c-14.284 0-26.068 4.688-35.352 14.062s-13.926 20.912-13.926 34.614 4.642 25.24 13.926 34.614 21.068 14.062 35.352 14.062h409.228l23.568 62.742h-499.216c-12.856 0-23.926 4.688-33.21 14.062s-13.926 20.554-13.926 33.534 4.642 24.16 13.926 33.534 20.354 14.062 33.21 14.062h533.496l25.71 69.232h-623.482c-12.856 0-23.926 4.688-33.21 14.062-9.284 9.38-13.926 20.558-13.926 33.54s4.642 24.16 13.926 33.534 20.354 14.062 33.21 14.062h659.908l42.852 118.994c7.142 21.636 21.426 32.452 42.852 32.452h182.118c12.856 0 23.926-4.688 33.21-14.062 9.282-9.374 13.924-20.552 13.924-33.534s-4.642-24.52-13.926-34.616c-9.284-10.098-20.354-15.144-33.21-15.144zM276.55 236.054c19.358 0 35.49-6.852 48.396-20.554s19.358-30.29 19.358-49.762c0-19.472-6.452-36.060-19.358-49.76-12.906-13.702-29.038-20.554-48.396-20.554s-35.85 6.852-49.472 20.554-20.434 30.29-20.434 49.76c0 19.472 6.812 36.060 20.434 49.762 13.622 13.704 30.112 20.554 49.472 20.554zM635.756 236.054c19.358 0 35.85-6.852 49.472-20.554s20.434-29.928 20.434-48.68-6.812-34.978-20.434-48.68-30.114-20.554-49.472-20.554-35.85 6.852-49.472 20.554-20.434 29.928-20.434 48.68 6.812 34.978 20.434 48.68c13.624 13.704 30.114 20.554 49.472 20.554z" />
<glyph unicode="&#xe001;" d="M968.066 433.708c0-9.99-1.43-19.268-4.274-27.828l-61.884-233.3c-8.536-34.246-27.74-62.070-57.614-83.474s-61.172-32.106-93.89-32.106h-463.054c-34.142 0-65.44 10.702-93.89 32.106-28.452 21.404-46.946 49.228-55.48 83.474l-59.75 233.3c-2.844 7.134-4.268 14.982-4.268 23.544-19.916 4.28-36.63 14.982-50.144 32.106s-20.272 37.098-20.272 59.928c0 25.684 8.18 47.446 24.54 65.28 16.36 17.836 35.922 26.754 58.684 26.754h113.096c-2.844-27.112 5.692-50.656 25.606-70.632 17.072-18.55 38.054-27.824 62.95-27.824s45.878 9.274 62.95 27.824l68.284 70.632h168.576l66.15-66.35c17.072-18.55 38.054-27.824 62.95-27.824s45.878 9.274 62.95 27.824c17.072 18.55 25.606 40.666 25.606 66.35h134.434c22.762 0 42.324-8.918 58.684-26.754s24.54-39.596 24.54-65.28c0-19.976-4.978-37.812-14.938-53.506-9.958-15.696-23.472-27.11-40.542-34.244v0zM364.17 215.388l-53.344 188.35c-2.844 11.414-9.602 20.334-20.272 26.754-10.67 6.422-22.050 7.848-34.142 4.28s-20.984-10.346-26.676-20.336c-5.692-9.99-7.114-20.69-4.27-32.106l51.214-188.35c4.268-11.414 11.38-20.334 21.338-26.754 9.958-6.422 20.984-7.848 33.078-4.28 12.092 3.568 21.338 10.346 27.74 20.336s8.178 20.692 5.334 32.106zM558.356 397.318c0 11.414-4.268 21.404-12.804 29.964-8.536 8.562-18.848 12.842-30.942 12.842-12.092 0-22.762-4.28-32.008-12.842s-13.87-18.55-13.87-29.964v-196.912c0-11.414 4.624-21.404 13.87-29.964s19.916-12.842 32.008-12.842c12.092 0 22.406 4.28 30.942 12.842s12.804 18.55 12.804 29.964v196.912zM776.012 434.774c-11.38 3.568-22.406 2.14-33.076-4.28-10.67-6.422-18.138-15.34-22.406-26.754l-51.214-188.35c-2.844-11.414-1.066-22.116 5.334-32.106 6.402-9.99 15.294-16.768 26.674-20.336s22.406-2.14 33.076 4.28c10.67 6.422 17.428 15.34 20.272 26.754l53.348 188.35c2.844 11.414 1.066 22.116-5.334 32.106-6.402 9.99-15.294 16.768-26.674 20.336zM679.986 572.826l-172.844 179.79-172.844-179.79c-9.958-11.414-22.762-17.122-38.41-17.122s-28.808 5.708-39.476 17.122c-10.67 11.414-16.004 24.97-16.004 40.664s4.978 29.25 14.938 40.664l189.916 196.912c0 17.122 6.046 31.392 18.138 42.808 12.092 11.414 26.674 17.122 43.744 17.122 27.030 0 46.234-13.554 57.614-40.666 2.844-5.708 4.978-12.13 6.402-19.264l187.782-196.912c11.38-11.414 17.072-24.97 17.072-40.664s-5.692-29.25-17.072-40.664-24.54-17.122-39.476-17.122-28.1 5.708-39.48 17.122v0z" />
<glyph unicode="&#xe015;" d="M585.142 502.858v-36.572q0-7.428-5.428-12.858t-12.858-5.428h-128v-128q0-7.428-5.428-12.858t-12.858-5.428h-36.572q-7.428 0-12.858 5.428t-5.428 12.858v128h-128q-7.428 0-12.858 5.428t-5.428 12.858v36.572q0 7.428 5.428 12.858t12.858 5.428h128v128q0 7.428 5.428 12.858t12.858 5.428h36.572q7.428 0 12.858-5.428t5.428-12.858v-128h128q7.428 0 12.858-5.428t5.428-12.858zM658.286 484.572q0 105.714-75.142 180.858t-180.858 75.142-180.858-75.142-75.142-180.858 75.142-180.858 180.858-75.142 180.858 75.142 75.142 180.858zM950.858 9.142q0-30.286-21.428-51.714t-51.714-21.428q-30.858 0-51.428 21.714l-196 195.428q-102.286-70.858-228-70.858-81.714 0-156.286 31.714t-128.572 85.714-85.714 128.572-31.714 156.286 31.714 156.286 85.714 128.572 128.572 85.714 156.286 31.714 156.286-31.714 128.572-85.714 85.714-128.572 31.714-156.286q0-125.714-70.858-228l196-196q21.142-21.142 21.142-51.428z" horiz-adv-x="950" />
<glyph unicode="&#xe016;" d="M585.142 502.858v-36.572q0-7.428-5.428-12.858t-12.858-5.428h-329.142q-7.428 0-12.858 5.428t-5.428 12.858v36.572q0 7.428 5.428 12.858t12.858 5.428h329.142q7.428 0 12.858-5.428t5.428-12.858zM658.286 484.572q0 105.714-75.142 180.858t-180.858 75.142-180.858-75.142-75.142-180.858 75.142-180.858 180.858-75.142 180.858 75.142 75.142 180.858zM950.858 9.142q0-30.286-21.428-51.714t-51.714-21.428q-30.858 0-51.428 21.714l-196 195.428q-102.286-70.858-228-70.858-81.714 0-156.286 31.714t-128.572 85.714-85.714 128.572-31.714 156.286 31.714 156.286 85.714 128.572 128.572 85.714 156.286 31.714 156.286-31.714 128.572-85.714 85.714-128.572 31.714-156.286q0-125.714-70.858-228l196-196q21.142-21.142 21.142-51.428z" horiz-adv-x="950" />
<glyph unicode="&#xe017;" d="M877.714 448q0-89.142-34.858-170.286t-93.714-140-140-93.714-170.286-34.858-170.286 34.858-140 93.714-93.714 140-34.858 170.286q0 104 46 196t129.428 154.286q24.572 18.286 54.572 14.286t47.714-28.572q18.286-24 14-54t-28.286-48.286q-56-42.286-86.572-103.428t-30.572-130.286q0-59.428 23.142-113.428t62.572-93.428 93.428-62.572 113.428-23.142 113.428 23.142 93.428 62.572 62.572 93.428 23.142 113.428q0 69.142-30.572 130.286t-86.572 103.428q-24 18.286-28.286 48.286t14 54q17.714 24.572 48 28.572t54.286-14.286q83.428-62.286 129.428-154.286t46-196zM512 886.858v-365.714q0-29.714-21.714-51.428t-51.428-21.714-51.428 21.714-21.714 51.428v365.714q0 29.714 21.714 51.428t51.428 21.714 51.428-21.714 21.714-51.428z" horiz-adv-x="876" />
<glyph unicode="&#xe01a;" d="M292.572 539.428v-329.142q0-8-5.142-13.142t-13.142-5.142h-36.572q-8 0-13.142 5.142t-5.142 13.142v329.142q0 8 5.142 13.142t13.142 5.142h36.572q8 0 13.142-5.142t5.142-13.142zM438.858 539.428v-329.142q0-8-5.142-13.142t-13.142-5.142h-36.572q-8 0-13.142 5.142t-5.142 13.142v329.142q0 8 5.142 13.142t13.142 5.142h36.572q8 0 13.142-5.142t5.142-13.142zM585.142 539.428v-329.142q0-8-5.142-13.142t-13.142-5.142h-36.572q-8 0-13.142 5.142t-5.142 13.142v329.142q0 8 5.142 13.142t13.142 5.142h36.572q8 0 13.142-5.142t5.142-13.142zM658.286 125.714v541.714h-512v-541.714q0-12.572 4-23.142t8.286-15.428 6-4.858h475.428q1.714 0 6 4.858t8.286 15.428 4 23.142zM274.286 740.572h256l-27.428 66.858q-4 5.142-9.714 6.286h-181.142q-5.714-1.142-9.714-6.286zM804.572 722.286v-36.572q0-8-5.142-13.142t-13.142-5.142h-54.858v-541.714q0-47.428-26.858-82t-64.572-34.572h-475.428q-37.714 0-64.572 33.428t-26.858 80.858v544h-54.858q-8 0-13.142 5.142t-5.142 13.142v36.572q0 8 5.142 13.142t13.142 5.142h176.572l40 95.428q8.572 21.142 30.858 36t45.142 14.858h182.858q22.858 0 45.142-14.858t30.858-36l40-95.428h176.572q8 0 13.142-5.142t5.142-13.142z" horiz-adv-x="804" />
<glyph unicode="&#xe01b;" d="M804.572 393.142v-274.286q0-14.858-10.858-25.714t-25.714-10.858h-219.428v219.428h-146.286v-219.428h-219.428q-14.858 0-25.714 10.858t-10.858 25.714v274.286q0 0.572 0.286 1.714t0.286 1.714l328.572 270.858 328.572-270.858q0.572-1.142 0.572-3.428zM932 432.572l-35.428-42.286q-4.572-5.142-12-6.286h-1.714q-7.428 0-12 4l-395.428 329.714-395.428-329.714q-6.858-4.572-13.714-4-7.428 1.142-12 6.286l-35.428 42.286q-4.572 5.714-4 13.428t6.286 12.286l410.858 342.286q18.286 14.858 43.428 14.858t43.428-14.858l139.428-116.572v111.428q0 8 5.142 13.142t13.142 5.142h109.714q8 0 13.142-5.142t5.142-13.142v-233.142l125.142-104q5.714-4.572 6.286-12.286t-4-13.428z" horiz-adv-x="950" />
<glyph unicode="&#xe021;" d="M638.858 459.428q-4.572-11.428-17.142-11.428h-109.714v-201.142q0-8-5.142-13.142t-13.142-5.142h-109.714q-8 0-13.142 5.142t-5.142 13.142v201.142h-109.714q-8 0-13.142 5.142t-5.142 13.142q0 6.858 5.714 13.714l182.286 182.286q6.286 5.142 13.142 5.142t13.142-5.142l182.858-182.858q8.572-9.142 4-20zM438.858 758.858q-84.572 0-156-41.714t-113.142-113.142-41.714-156 41.714-156 113.142-113.142 156-41.714 156 41.714 113.142 113.142 41.714 156-41.714 156-113.142 113.142-156 41.714zM877.714 448q0-119.428-58.858-220.286t-159.714-159.714-220.286-58.858-220.286 58.858-159.714 159.714-58.858 220.286 58.858 220.286 159.714 159.714 220.286 58.858 220.286-58.858 159.714-159.714 58.858-220.286z" horiz-adv-x="876" />
<glyph unicode="&#xe023;" d="M676.572 448q0-21.142-18.286-31.428l-310.858-182.858q-8.572-5.142-18.286-5.142-9.142 0-18.286 4.572-18.286 10.858-18.286 32v365.714q0 21.142 18.286 32 18.858 10.286 36.572-0.572l310.858-182.858q18.286-10.286 18.286-31.428zM749.714 448q0 84.572-41.714 156t-113.142 113.142-156 41.714-156-41.714-113.142-113.142-41.714-156 41.714-156 113.142-113.142 156-41.714 156 41.714 113.142 113.142 41.714 156zM877.714 448q0-119.428-58.858-220.286t-159.714-159.714-220.286-58.858-220.286 58.858-159.714 159.714-58.858 220.286 58.858 220.286 159.714 159.714 220.286 58.858 220.286-58.858 159.714-159.714 58.858-220.286z" horiz-adv-x="876" />
<glyph unicode="&#xe024;" d="M877.714 813.714v-256q0-14.858-10.858-25.714t-25.714-10.858h-256q-24 0-33.714 22.858-9.714 22.286 8 39.428l78.858 78.858q-84.572 78.286-199.428 78.286-59.428 0-113.428-23.142t-93.428-62.572-62.572-93.428-23.142-113.428 23.142-113.428 62.572-93.428 93.428-62.572 113.428-23.142q68 0 128.572 29.714t102.286 84q4 5.714 13.142 6.858 8 0 14.286-5.142l78.286-78.858q5.142-4.572 5.428-11.714t-4.286-12.858q-62.286-75.428-150.858-116.858t-186.858-41.428q-89.142 0-170.286 34.858t-140 93.714-93.714 140-34.858 170.286 34.858 170.286 93.714 140 140 93.714 170.286 34.858q84 0 162.572-31.714t139.714-89.428l74.286 73.714q16.572 17.714 40 8 22.286-9.714 22.286-33.714z" horiz-adv-x="876" />
<glyph unicode="&#xe025;" d="M863.428 356.572q0-2.858-0.572-4-36.572-153.142-153.142-248.286t-273.142-95.142q-83.428 0-161.428 31.428t-139.142 89.714l-73.714-73.714q-10.858-10.858-25.714-10.858t-25.714 10.858-10.858 25.714v256q0 14.858 10.858 25.714t25.714 10.858h256q14.858 0 25.714-10.858t10.858-25.714-10.858-25.714l-78.286-78.286q40.572-37.714 92-58.286t106.858-20.572q76.572 0 142.858 37.142t106.286 102.286q6.286 9.714 30.286 66.858 4.572 13.142 17.142 13.142h109.714q7.428 0 12.858-5.428t5.428-12.858zM877.714 813.714v-256q0-14.858-10.858-25.714t-25.714-10.858h-256q-14.858 0-25.714 10.858t-10.858 25.714 10.858 25.714l78.858 78.858q-84.572 78.286-199.428 78.286-76.572 0-142.858-37.142t-106.286-102.286q-6.286-9.714-30.286-66.858-4.572-13.142-17.142-13.142h-113.714q-7.428 0-12.858 5.428t-5.428 12.858v4q37.142 153.142 154.286 248.286t274.286 95.142q83.428 0 162.286-31.714t140-89.428l74.286 73.714q10.858 10.858 25.714 10.858t25.714-10.858 10.858-25.714z" horiz-adv-x="876" />
<glyph unicode="&#xe036;" d="M804.572 394.858v-148q0-68-48.286-116.286t-116.286-48.286h-475.428q-68 0-116.286 48.286t-48.286 116.286v475.428q0 68 48.286 116.286t116.286 48.286h145.714q7.428 0 12.858-5.428t5.428-12.858q0-15.428-14.858-18.286-44-14.858-76-34.286-5.714-2.286-9.142-2.286h-64q-37.714 0-64.572-26.858t-26.858-64.572v-475.428q0-37.714 26.858-64.572t64.572-26.858h475.428q37.714 0 64.572 26.858t26.858 64.572v122.286q0 10.858 10.286 16.572 16 7.428 30.858 21.142 9.142 9.142 20 4.572 12-5.142 12-16.572zM940 678.286l-219.428-219.428q-10.286-10.858-25.714-10.858-6.858 0-14.286 2.858-22.286 9.714-22.286 33.714v109.714h-91.428q-184.572 0-250.286-74.858-68-78.286-42.286-270.286 1.714-13.142-11.428-19.428-4.572-1.142-6.858-1.142-9.142 0-14.858 7.428-5.714 8-12 17.714t-22.572 39.142-28.286 56.858-22 65.142-10 69.714q0 28 2 52t8 51.428 16 50.286 26.858 46.572 39.142 42.286 54 35.142 71.142 27.714 91.142 17.428 112.286 6.286h91.428v109.714q0 24 22.286 33.714 7.428 2.858 14.286 2.858 14.858 0 25.714-10.858l219.428-219.428q10.858-10.858 10.858-25.714t-10.858-25.714z" horiz-adv-x="950" />
<glyph unicode="&#xe037;" d="M804.572 428.572v-181.714q0-68-48.286-116.286t-116.286-48.286h-475.428q-68 0-116.286 48.286t-48.286 116.286v475.428q0 68 48.286 116.286t116.286 48.286h475.428q36 0 66.858-14.286 8.572-4 10.286-13.142 1.714-9.714-5.142-16.572l-28-28q-5.714-5.714-13.142-5.714-1.714 0-5.142 1.142-13.142 3.428-25.714 3.428h-475.428q-37.714 0-64.572-26.858t-26.858-64.572v-475.428q0-37.714 26.858-64.572t64.572-26.858h475.428q37.714 0 64.572 26.858t26.858 64.572v145.142q0 7.428 5.142 12.572l36.572 36.572q5.714 5.714 13.142 5.714 3.428 0 6.858-1.714 11.428-4.572 11.428-16.572zM936.572 708l-465.142-465.142q-13.714-13.714-32.572-13.714t-32.572 13.714l-245.714 245.714q-13.714 13.714-13.714 32.572t13.714 32.572l62.858 62.858q13.714 13.714 32.572 13.714t32.572-13.714l150.286-150.286 369.714 369.714q13.714 13.714 32.572 13.714t32.572-13.714l62.858-62.858q13.714-13.714 13.714-32.572t-13.714-32.572z" horiz-adv-x="950" />
<glyph unicode="&#xe045;" d="M694.858 411.428v73.142q0 14.858-10.858 25.714t-25.714 10.858h-146.286v146.286q0 14.858-10.858 25.714t-25.714 10.858h-73.142q-14.858 0-25.714-10.858t-10.858-25.714v-146.286h-146.286q-14.858 0-25.714-10.858t-10.858-25.714v-73.142q0-14.858 10.858-25.714t25.714-10.858h146.286v-146.286q0-14.858 10.858-25.714t25.714-10.858h73.142q14.858 0 25.714 10.858t10.858 25.714v146.286h146.286q14.858 0 25.714 10.858t10.858 25.714zM877.714 448q0-119.428-58.858-220.286t-159.714-159.714-220.286-58.858-220.286 58.858-159.714 159.714-58.858 220.286 58.858 220.286 159.714 159.714 220.286 58.858 220.286-58.858 159.714-159.714 58.858-220.286z" horiz-adv-x="876" />
<glyph unicode="&#xe046;" d="M694.858 411.428v73.142q0 14.858-10.858 25.714t-25.714 10.858h-438.858q-14.858 0-25.714-10.858t-10.858-25.714v-73.142q0-14.858 10.858-25.714t25.714-10.858h438.858q14.858 0 25.714 10.858t10.858 25.714zM877.714 448q0-119.428-58.858-220.286t-159.714-159.714-220.286-58.858-220.286 58.858-159.714 159.714-58.858 220.286 58.858 220.286 159.714 159.714 220.286 58.858 220.286-58.858 159.714-159.714 58.858-220.286z" horiz-adv-x="876" />
<glyph unicode="&#xe056;" d="M804.572 539.428v-109.714q0-22.858-16-38.858t-38.858-16h-237.714v-237.714q0-22.858-16-38.858t-38.858-16h-109.714q-22.858 0-38.858 16t-16 38.858v237.714h-237.714q-22.858 0-38.858 16t-16 38.858v109.714q0 22.858 16 38.858t38.858 16h237.714v237.714q0 22.858 16 38.858t38.858 16h109.714q22.858 0 38.858-16t16-38.858v-237.714h237.714q22.858 0 38.858-16t16-38.858z" horiz-adv-x="804" />
<glyph unicode="&#xe059;" d="M438.858 886.858q119.428 0 220.286-58.858t159.714-159.714 58.858-220.286-58.858-220.286-159.714-159.714-220.286-58.858-220.286 58.858-159.714 159.714-58.858 220.286 58.858 220.286 159.714 159.714 220.286 58.858zM512 174.286v108.572q0 8-5.142 13.428t-12.572 5.428h-109.714q-7.428 0-13.142-5.714t-5.714-13.142v-108.572q0-7.428 5.714-13.142t13.142-5.714h109.714q7.428 0 12.572 5.428t5.142 13.428zM510.858 370.858l10.286 354.858q0 6.858-5.714 10.286-5.714 4.572-13.714 4.572h-125.714q-8 0-13.714-4.572-5.714-3.428-5.714-10.286l9.714-354.858q0-5.714 5.714-10t13.714-4.286h105.714q8 0 13.428 4.286t6 10z" horiz-adv-x="876" />
<glyph unicode="&#xe05f;" d="M585.142 174.286v108.572q0 8-5.428 13.428t-12.858 5.428h-109.714q-7.428 0-12.858-5.428t-5.428-13.428v-108.572q0-8 5.428-13.428t12.858-5.428h109.714q7.428 0 12.858 5.428t5.428 13.428zM584 388l10.286 262.286q0 6.858-5.714 10.858-7.428 6.286-13.714 6.286h-125.714q-6.286 0-13.714-6.286-5.714-4-5.714-12l9.714-261.142q0-5.714 5.714-9.428t13.714-3.714h105.714q8 0 13.428 3.714t6 9.428zM576 921.714l438.858-804.572q20-36-1.142-72-9.714-16.572-26.572-26.286t-36.286-9.714h-877.714q-19.428 0-36.286 9.714t-26.572 26.286q-21.142 36-1.142 72l438.858 804.572q9.714 17.714 26.858 28t37.142 10.286 37.142-10.286 26.858-28z" />
<glyph unicode="&#xe060;" d="M786.286 868.572q25.142-29.714 6.858-84.572t-61.714-98.286l-92-92 91.428-397.714q2.858-10.858-6.858-18.858l-73.142-54.858q-4-3.428-10.858-3.428-2.286 0-4 0.572-8.572 1.714-12 9.142l-159.428 290.286-148-148 30.286-110.858q2.858-9.714-4.572-17.714l-54.858-54.858q-5.142-5.142-13.142-5.142h-1.142q-8.572 1.142-13.714 7.428l-108 144-144 108q-6.286 4-7.428 13.142-0.572 7.428 5.142 14.286l54.858 55.428q5.142 5.142 13.142 5.142 3.428 0 4.572-0.572l110.858-30.286 148 148-290.286 159.428q-8 4.572-9.714 13.714-1.142 9.142 5.142 15.428l73.142 73.142q8 7.428 17.142 4.572l380-90.858 91.428 91.428q43.428 43.428 98.286 61.714t84.572-6.858z" horiz-adv-x="804" />
<glyph unicode="&#xe078;" d="M365.714 137.142q0-2.286 0.572-11.428t0.286-15.142-1.714-13.428-5.714-11.142-11.714-3.714h-182.858q-68 0-116.286 48.286t-48.286 116.286v402.286q0 68 48.286 116.286t116.286 48.286h182.858q7.428 0 12.858-5.428t5.428-12.858q0-2.286 0.572-11.428t0.286-15.142-1.714-13.428-5.714-11.142-11.714-3.714h-182.858q-37.714 0-64.572-26.858t-26.858-64.572v-402.286q0-37.714 26.858-64.572t64.572-26.858h178.286t6.572-0.572 6.572-1.714 4.572-3.142 4-5.142 1.142-7.714zM896 448q0-14.858-10.858-25.714l-310.858-310.858q-10.858-10.858-25.714-10.858t-25.714 10.858-10.858 25.714v164.572h-256q-14.858 0-25.714 10.858t-10.858 25.714v219.428q0 14.858 10.858 25.714t25.714 10.858h256v164.572q0 14.858 10.858 25.714t25.714 10.858 25.714-10.858l310.858-310.858q10.858-10.858 10.858-25.714z" horiz-adv-x="950" />
<glyph unicode="&#xe07a;" d="M274.286 466.286v256q0 8-5.142 13.142t-13.142 5.142-13.142-5.142-5.142-13.142v-256q0-8 5.142-13.142t13.142-5.142 13.142 5.142 5.142 13.142zM658.286 265.142q0-14.858-10.858-25.714t-25.714-10.858h-245.142l-29.142-276q-1.142-6.858-6-11.714t-11.714-4.858h-0.572q-15.428 0-18.286 15.428l-43.428 277.142h-230.858q-14.858 0-25.714 10.858t-10.858 25.714q0 70.286 44.858 126.572t101.428 56.286v292.572q-29.714 0-51.428 21.714t-21.714 51.428 21.714 51.428 51.428 21.714h365.714q29.714 0 51.428-21.714t21.714-51.428-21.714-51.428-51.428-21.714v-292.572q56.572 0 101.428-56.286t44.858-126.572z" horiz-adv-x="658" />
<glyph unicode="&#xe07b;" d="M804.572 429.714v-182.858q0-68-48.286-116.286t-116.286-48.286h-475.428q-68 0-116.286 48.286t-48.286 116.286v475.428q0 68 48.286 116.286t116.286 48.286h402.286q8 0 13.142-5.142t5.142-13.142v-36.572q0-8-5.142-13.142t-13.142-5.142h-402.286q-37.714 0-64.572-26.858t-26.858-64.572v-475.428q0-37.714 26.858-64.572t64.572-26.858h475.428q37.714 0 64.572 26.858t26.858 64.572v182.858q0 8 5.142 13.142t13.142 5.142h36.572q8 0 13.142-5.142t5.142-13.142zM1024 923.428v-292.572q0-14.858-10.858-25.714t-25.714-10.858-25.714 10.858l-100.572 100.572-372.572-372.572q-5.714-5.714-13.142-5.714t-13.142 5.714l-65.142 65.142q-5.714 5.714-5.714 13.142t5.714 13.142l372.572 372.572-100.572 100.572q-10.858 10.858-10.858 25.714t10.858 25.714 25.714 10.858h292.572q14.858 0 25.714-10.858t10.858-25.714z" />
<glyph unicode="&#xe07c;" d="M676.572 448q0-14.858-10.858-25.714l-310.858-310.858q-10.858-10.858-25.714-10.858t-25.714 10.858-10.858 25.714v164.572h-256q-14.858 0-25.714 10.858t-10.858 25.714v219.428q0 14.858 10.858 25.714t25.714 10.858h256v164.572q0 14.858 10.858 25.714t25.714 10.858 25.714-10.858l310.858-310.858q10.858-10.858 10.858-25.714zM877.714 649.142v-402.286q0-68-48.286-116.286t-116.286-48.286h-182.858q-7.428 0-12.858 5.428t-5.428 12.858q0 2.286-0.572 11.428t-0.286 15.142 1.714 13.428 5.714 11.142 11.714 3.714h182.858q37.714 0 64.572 26.858t26.858 64.572v402.286q0 37.714-26.858 64.572t-64.572 26.858h-178.286t-6.572 0.572-6.572 1.714-4.572 3.142-4 5.142-1.142 7.714q0 2.286-0.572 11.428t-0.286 15.142 1.714 13.428 5.714 11.142 11.714 3.714h182.858q68 0 116.286-48.286t48.286-116.286z" horiz-adv-x="876" />
<glyph unicode="&#xe07d;" d="M261.714 455.428q-42.286 92.572-42.286 212h-146.286v-54.858q0-44.572 54-92.572t134.572-64.572zM877.714 612.572v54.858h-146.286q0-119.428-42.286-212 80.572 16.572 134.572 64.572t54 92.572zM950.858 685.714v-73.142q0-40.572-23.714-81.714t-64-74.286-98.858-55.714-123.142-25.428q-24-30.858-54.286-54.286-21.714-19.428-30-41.428t-8.286-51.142q0-30.858 17.428-52t55.714-21.142q42.858 0 76.286-26t33.428-65.428v-36.572q0-8-5.142-13.142t-13.142-5.142h-475.428q-8 0-13.142 5.142t-5.142 13.142v36.572q0 39.428 33.428 65.428t76.286 26q38.286 0 55.714 21.142t17.428 52q0 29.142-8.286 51.142t-30 41.428q-30.286 23.428-54.286 54.286-64.572 2.858-123.142 25.428t-98.858 55.714-64 74.286-23.714 81.714v73.142q0 22.858 16 38.858t38.858 16h164.572v54.858q0 37.714 26.858 64.572t64.572 26.858h329.142q37.714 0 64.572-26.858t26.858-64.572v-54.858h164.572q22.858 0 38.858-16t16-38.858z" horiz-adv-x="950" />
<glyph unicode="&#xe084;" d="M731.428 278.286q0 6.286-1.142 9.142-1.714 4.572-22 16.858t-50.572 28.286l-30.286 16.572q-2.858 1.714-10.858 7.428t-14.286 8.572-12 2.858q-10.286 0-26.858-18.572t-32.572-37.428-25.142-18.858q-4 0-9.428 2t-8.858 3.714-9.714 5.428-8 4.858q-56.572 31.428-97.428 72.286t-72.286 97.428q-1.142 1.714-4.858 8t-5.428 9.714-3.714 8.858-2 9.428q0 7.428 11.714 19.142t25.714 22 25.714 22.572 11.714 20.858q0 5.714-2.858 12t-8.572 14.286-7.428 10.858q-1.714 3.428-8.572 16.286t-14.286 26-15.142 27.142-14.286 23.142-9.428 10.286-9.142 1.142q-27.428 0-57.714-12.572-26.286-12-45.714-54t-19.428-74.572q0-9.142 1.428-19.428t2.858-17.428 5.142-18.858 5.714-16.858 7.142-18.858 6.286-17.142q34.286-93.714 123.714-183.142t183.142-123.714q3.428-1.142 17.142-6.286t18.858-7.142 16.858-5.714 18.858-5.142 17.428-2.858 19.428-1.428q32.572 0 74.572 19.428t54 45.714q12.572 30.286 12.572 57.714zM877.714 722.286v-548.572q0-68-48.286-116.286t-116.286-48.286h-548.572q-68 0-116.286 48.286t-48.286 116.286v548.572q0 68 48.286 116.286t116.286 48.286h548.572q68 0 116.286-48.286t48.286-116.286z" horiz-adv-x="876" />
<glyph unicode="&#xe08d;" d="M484.572-9.142q0 9.142-9.142 9.142-33.714 0-58 24.286t-24.286 58q0 9.142-9.142 9.142t-9.142-9.142q0-41.714 29.428-71.142t71.142-29.428q9.142 0 9.142 9.142zM104.572 155.428h741.714q-93.714 103.428-140.858 235.142t-47.142 276.858q0 146.286-182.858 146.286t-182.858-146.286q0-145.142-47.142-276.858t-140.858-235.142zM950.858 155.428q0-29.714-21.714-51.428t-51.428-21.714h-256q0-60.572-42.858-103.428t-103.428-42.858-103.428 42.858-42.858 103.428h-256q-29.714 0-51.428 21.714t-21.714 51.428q108.572 92 164 227.142t55.428 284.858q0 94.286 54.858 149.714t150.858 66.858q-4.572 10.286-4.572 21.142 0 22.858 16 38.858t38.858 16 38.858-16 16-38.858q0-10.858-4.572-21.142 96-11.428 150.858-66.858t54.858-149.714q0-149.714 55.428-284.858t164-227.142z" horiz-adv-x="950" />
<glyph unicode="&#xe08e;" d="M786.286 448l78.858-77.142q17.142-16 11.428-40-6.858-23.428-29.714-29.142l-107.428-27.428 30.286-106.286q6.858-23.428-10.858-40-16.572-17.714-40-10.858l-106.286 30.286-27.428-107.428q-5.714-22.858-29.142-29.714-6.858-1.142-10.858-1.142-17.714 0-29.142 12.572l-77.142 78.858-77.142-78.858q-16-17.142-40-11.428-23.428 6.286-29.142 29.714l-27.428 107.428-106.286-30.286q-23.428-6.858-40 10.858-17.714 16.572-10.858 40l30.286 106.286-107.428 27.428q-22.858 5.714-29.714 29.142-5.714 24 11.428 40l78.858 77.142-78.858 77.142q-17.142 16-11.428 40 6.858 23.428 29.714 29.142l107.428 27.428-30.286 106.286q-6.858 23.428 10.858 40 16.572 17.714 40 10.858l106.286-30.286 27.428 107.428q5.714 23.428 29.142 29.142 23.428 6.858 40-10.858l77.142-79.428 77.142 79.428q16.572 17.142 40 10.858 23.428-5.714 29.142-29.142l27.428-107.428 106.286 30.286q23.428 6.858 40-10.858 17.714-16.572 10.858-40l-30.286-106.286 107.428-27.428q22.858-5.714 29.714-29.142 5.714-24-11.428-40z" horiz-adv-x="876" />
<glyph unicode="&#xe093;" d="M731.428 411.428v73.142q0 14.858-10.858 25.714t-25.714 10.858h-286.858l108 108q10.858 10.858 10.858 25.714t-10.858 25.714l-52 52q-10.286 10.286-25.714 10.286t-25.714-10.286l-258.858-258.858q-10.286-10.286-10.286-25.714t10.286-25.714l258.858-258.858q10.286-10.286 25.714-10.286t25.714 10.286l52 52q10.286 10.286 10.286 25.714t-10.286 25.714l-108 108h286.858q14.858 0 25.714 10.858t10.858 25.714zM877.714 448q0-119.428-58.858-220.286t-159.714-159.714-220.286-58.858-220.286 58.858-159.714 159.714-58.858 220.286 58.858 220.286 159.714 159.714 220.286 58.858 220.286-58.858 159.714-159.714 58.858-220.286z" horiz-adv-x="876" />
<glyph unicode="&#xe094;" d="M734.286 448q0 15.428-10.286 25.714l-258.858 258.858q-10.286 10.286-25.714 10.286t-25.714-10.286l-52-52q-10.286-10.286-10.286-25.714t10.286-25.714l108-108h-286.858q-14.858 0-25.714-10.858t-10.858-25.714v-73.142q0-14.858 10.858-25.714t25.714-10.858h286.858l-108-108q-10.858-10.858-10.858-25.714t10.858-25.714l52-52q10.286-10.286 25.714-10.286t25.714 10.286l258.858 258.858q10.286 10.286 10.286 25.714zM877.714 448q0-119.428-58.858-220.286t-159.714-159.714-220.286-58.858-220.286 58.858-159.714 159.714-58.858 220.286 58.858 220.286 159.714 159.714 220.286 58.858 220.286-58.858 159.714-159.714 58.858-220.286z" horiz-adv-x="876" />
<glyph unicode="&#xe095;" d="M733.714 448.572q0 15.428-10.286 25.714l-258.858 258.858q-10.286 10.286-25.714 10.286t-25.714-10.286l-258.858-258.858q-10.286-10.286-10.286-25.714t10.286-25.714l52-52q10.286-10.286 25.714-10.286t25.714 10.286l108 108v-286.858q0-14.858 10.858-25.714t25.714-10.858h73.142q14.858 0 25.714 10.858t10.858 25.714v286.858l108-108q10.858-10.858 25.714-10.858t25.714 10.858l52 52q10.286 10.286 10.286 25.714zM877.714 448q0-119.428-58.858-220.286t-159.714-159.714-220.286-58.858-220.286 58.858-159.714 159.714-58.858 220.286 58.858 220.286 159.714 159.714 220.286 58.858 220.286-58.858 159.714-159.714 58.858-220.286z" horiz-adv-x="876" />
<glyph unicode="&#xe096;" d="M733.714 447.428q0 15.428-10.286 25.714l-52 52q-10.286 10.286-25.714 10.286t-25.714-10.286l-108-108v286.858q0 14.858-10.858 25.714t-25.714 10.858h-73.142q-14.858 0-25.714-10.858t-10.858-25.714v-286.858l-108 108q-10.858 10.858-25.714 10.858t-25.714-10.858l-52-52q-10.286-10.286-10.286-25.714t10.286-25.714l258.858-258.858q10.286-10.286 25.714-10.286t25.714 10.286l258.858 258.858q10.286 10.286 10.286 25.714zM877.714 448q0-119.428-58.858-220.286t-159.714-159.714-220.286-58.858-220.286 58.858-159.714 159.714-58.858 220.286 58.858 220.286 159.714 159.714 220.286 58.858 220.286-58.858 159.714-159.714 58.858-220.286z" horiz-adv-x="876" />
<glyph unicode="&#xe0ad;" d="M365.714 155.428q0 29.714-21.714 51.428t-51.428 21.714-51.428-21.714-21.714-51.428 21.714-51.428 51.428-21.714 51.428 21.714 21.714 51.428zM146.286 448h219.428v146.286h-90.286q-7.428 0-12.572-5.142l-111.428-111.428q-5.142-5.142-5.142-12.572v-17.142zM877.714 155.428q0 29.714-21.714 51.428t-51.428 21.714-51.428-21.714-21.714-51.428 21.714-51.428 51.428-21.714 51.428 21.714 21.714 51.428zM1024 777.142v-585.142q0-8.572-2.286-15.142t-7.714-10.572-9.428-6.572-13.428-3.428-12.858-1.142-14.572 0-12.858 0.286q0-60.572-42.858-103.428t-103.428-42.858-103.428 42.858-42.858 103.428h-219.428q0-60.572-42.858-103.428t-103.428-42.858-103.428 42.858-42.858 103.428h-36.572q-1.714 0-12.858-0.286t-14.572 0-12.858 1.142-13.428 3.428-9.428 6.572-7.714 10.572-2.286 15.142q0 14.858 10.858 25.714t25.714 10.858v182.858q0 4.572-0.286 20t0 21.714 1.428 19.714 3.714 21.142 8 17.428 12.858 17.142l113.142 113.142q10.858 10.858 28.858 18.286t33.428 7.428h91.428v109.714q0 14.858 10.858 25.714t25.714 10.858h585.142q14.858 0 25.714-10.858t10.858-25.714z" />
<glyph unicode="&#xe0af;" d="M713.142 886.858q68 0 116.286-48.286t48.286-116.286v-548.572q0-68-48.286-116.286t-116.286-48.286h-414.286q48.572 69.714 61.714 120 5.142 19.428 30.286 119.428 12-22.286 42-38.286t64.286-16q103.428 0 168.858 84.286t65.428 213.428q0 48-20 92.858t-55.142 79.428-87.142 55.428-112.572 20.858q-59.428 0-111.142-16.286t-87.428-43.714-61.428-62.572-38-73.142-12.286-75.714q0-58.286 22.572-102.858t66.572-62.858q7.428-2.858 13.428 0t8.286 10.858q5.714 25.142 8.572 34.858 3.428 13.142-6.286 24-28.572 35.428-28.572 85.714 0 85.714 59.142 146.572t154.572 60.858q85.142 0 132.858-46.286t47.714-120q0-96-38.572-163.428t-99.142-67.428q-34.286 0-55.428 24.858t-13.142 59.142q4.572 19.428 15.142 52.858t16.858 58.286 6.286 42.572q0 28-15.142 46.572t-43.142 18.572q-34.858 0-59.142-32.286t-24.286-79.714q0-41.142 13.714-69.142l-56-236.572q-13.714-57.142-4-145.142h-104.572q-68 0-116.286 48.286t-48.286 116.286v548.572q0 68 48.286 116.286t116.286 48.286h548.572z" horiz-adv-x="876" />
<glyph unicode="&#xe0b0;" d="M387.428 49.714q0-21.714-5.714-40.572h-217.142q-54.286 0-98 32.286t-59.142 84.286q13.714 25.714 39.428 44.286t57.142 28.286 61.142 13.714 61.142 4q18.286 0 28-1.142 3.428-2.286 17.428-12t18.858-13.142 17.714-13.142 18.286-14.572 15.714-14.572 15.142-16.858 12-17.428 10-19.714 5.428-20.572 2.572-23.142zM220 250.286q-133.714-4-220-48.572v247.428q58.858-67.428 156-67.428 18.286 0 40 2.858-12-34.858-12-49.142 0-38.286 36-85.142zM318.858 542.286q0-57.142-24.858-91.714t-80.286-34.572q-29.142 0-55.428 14.858t-44.572 38.572-32 53.428-20.286 59.428-6.572 56.572q0 54.858 29.428 94.286t82.572 39.428q37.714 0 68-23.428t48-59.428 26.858-74.286 9.142-73.142zM877.714 594.286v-420.572q0-68-48.286-116.286t-116.286-48.286h-267.428q22.286 41.714 22.286 89.714 0 37.714-12.572 70t-31.714 53.142-41.142 40.572-41.142 34-31.714 31.142-12.572 34q0 20.572 13.142 38.858t32 35.142 37.428 36.858 31.714 53.142 13.142 74.858-15.142 83.142-43.142 67.714q-3.428 3.428-8 6.286t-7.142 4.286-5.714 5.428-6 9.714h77.142l77.142 36.572h-249.714q-78.858 0-139.714-22t-104.286-76.286q0 72 46.286 121.714t118.286 49.714h548.572q68 0 116.286-48.286t48.286-116.286v-54.858h-146.286v146.286h-73.142v-146.286h-146.286v-73.142h146.286v-146.286h73.142v146.286h146.286z" horiz-adv-x="876" />
<glyph unicode="&#xe0b2;" d="M438.858 301.714h219.428v54.858h-73.142v256h-65.142l-84.572-78.286 44-45.714q24 21.142 31.428 32.572h1.142v-164.572h-73.142v-54.858zM731.428 448q0-40-12-81.142t-34-76.572-58-57.714-78.858-22.286-78.858 22.286-58 57.714-34 76.572-12 81.142 12 81.142 34 76.572 58 57.714 78.858 22.286 78.858-22.286 58-57.714 34-76.572 12-81.142zM1024 301.714v292.572q-60.572 0-103.428 42.858t-42.858 103.428h-658.286q0-60.572-42.858-103.428t-103.428-42.858v-292.572q60.572 0 103.428-42.858t42.858-103.428h658.286q0 60.572 42.858 103.428t103.428 42.858zM1097.142 777.142v-658.286q0-14.858-10.858-25.714t-25.714-10.858h-1024q-14.858 0-25.714 10.858t-10.858 25.714v658.286q0 14.858 10.858 25.714t25.714 10.858h1024q14.858 0 25.714-10.858t10.858-25.714z" horiz-adv-x="1096" />
<glyph unicode="&#xe0bd;" d="M877.714 448q0-89.142-34.858-170.286t-93.714-140-140-93.714-170.286-34.858q-98.286 0-186.858 41.428t-150.858 116.858q-4 5.714-3.714 12.858t4.858 11.714l78.286 78.858q5.714 5.142 14.286 5.142 9.142-1.142 13.142-6.858 41.714-54.286 102.286-84t128.572-29.714q59.428 0 113.428 23.142t93.428 62.572 62.572 93.428 23.142 113.428-23.142 113.428-62.572 93.428-93.428 62.572-113.428 23.142q-56 0-107.428-20.286t-91.428-58l78.286-78.858q17.714-17.142 8-39.428-9.714-22.858-33.714-22.858h-256q-14.858 0-25.714 10.858t-10.858 25.714v256q0 24 22.858 33.714 22.286 9.714 39.428-8l74.286-73.714q61.142 57.714 139.714 89.428t162.572 31.714q89.142 0 170.286-34.858t140-93.714 93.714-140 34.858-170.286z" horiz-adv-x="876" />
<glyph unicode="&#xe0c6;" d="M420.572 630.858q0-7.428-5.428-12.858t-12.858-5.428-12.858 5.428-5.428 12.858q0 26.286-30.858 40.572t-60.572 14.286q-7.428 0-12.858 5.428t-5.428 12.858 5.428 12.858 12.858 5.428q28.572 0 56.858-9.142t49.714-30.858 21.428-51.428zM512 630.858q0 41.142-19.714 76.572t-51.428 58-70.286 35.428-78 12.858-78-12.858-70.286-35.428-51.428-58-19.714-76.572q0-57.714 38.858-102.858 5.714-6.286 17.428-18.858t17.428-18.858q73.142-87.428 80.572-170.286h130.286q7.428 82.858 80.572 170.286 5.714 6.286 17.428 18.858t17.428 18.858q38.858 45.142 38.858 102.858zM585.142 630.858q0-88.572-58.858-153.142-25.714-28-42.572-49.714t-34-54.572-19.428-61.428q26.858-16 26.858-46.858 0-21.142-14.286-36.572 14.286-15.428 14.286-36.572 0-29.714-25.714-46.286 7.428-13.142 7.428-26.858 0-26.286-18-40.572t-44.286-14.286q-11.428-25.142-34.286-40t-49.714-14.858-49.714 14.858-34.286 40q-26.286 0-44.286 14.286t-18 40.572q0 13.714 7.428 26.858-25.714 16.572-25.714 46.286 0 21.142 14.286 36.572-14.286 15.428-14.286 36.572 0 30.858 26.858 46.858-2.286 28.572-19.428 61.428t-34 54.572-42.572 49.714q-58.858 64.572-58.858 153.142 0 56.572 25.428 105.428t66.858 81.142 93.714 50.858 106.572 18.572 106.572-18.572 93.714-50.858 66.858-81.142 25.428-105.428z" horiz-adv-x="584" />
<glyph unicode="&#xe14f;" d="M1024 352l-192 192v288h-128v-160l-192 192-512-512v-32h128v-320h320v192h128v-192h320v320h128z" />
<glyph unicode="&#xe17e;" d="M128 32c0-53.019 42.981-96 96-96s96 42.981 96 96c0 53.019-42.981 96-96 96s-96-42.981-96-96zM768 32c0-53.019 42.981-96 96-96s96 42.981 96 96c0 53.019-42.981 96-96 96s-96-42.981-96-96zM960 448v384h-832c0 70.692-57.306 128-128 128v-64c35.29 0 64-28.71 64-64l48.074-412.054c-29.294-23.458-48.074-59.5-48.074-99.946 0-70.694 57.308-128 128-128h768v64h-768c-35.346 0-64 28.654-64 64 0 0.22 0.014 0.436 0.016 0.656l831.984 127.344z" />
<glyph unicode="&#xe17f;" d="M847.218 384c35.2 0 71.912 27.692 81.582 61.538l92.836 324.926c9.67 33.844-11.218 61.536-46.418 61.536h-655.218c0 70.692-57.308 128-128 128h-192v-128h192v-544c0-53.020 42.98-96 96-96h608c35.346 0 64 28.654 64 64s-28.654 64-64 64h-576v64h527.218zM320 704h578.806l-54.858-192h-523.948v192zM384 16c0-44-36-80-80-80h-32c-44 0-80 36-80 80v32c0 44 36 80 80 80h32c44 0 80-36 80-80v-32zM960 16c0-44-36-80-80-80h-32c-44 0-80 36-80 80v32c0 44 36 80 80 80h32c44 0 80-36 80-80v-32z" />
<glyph unicode="&#xe180;" d="M977.582 765.538c-33.984 9.708-69.41-9.97-79.12-43.956l-5.022-17.582h-596.942l-8.992 71.938c-4.004 32.028-31.23 56.062-63.506 56.062h-160c-35.346 0-64-28.654-64-64s28.654-64 64-64h103.502l56.992-455.938c4.004-32.026 31.23-56.062 63.506-56.062h544c28.574 0 53.688 18.944 61.538 46.418l128 448c9.71 33.986-9.97 69.41-43.956 79.12zM512 448v64h127.996v-64h-127.996zM639.996 384v-64h-127.996v64h127.996zM512 576v64h127.996v-64h-127.996zM304.498 640h143.502v-64h-135.502l-8 64zM320.498 512h127.502v-64h-119.502l-8 64zM336.498 384h111.502v-64h-103.502l-8 64zM783.724 320h-79.728v64h98.014l-18.286-64zM820.296 448h-116.3v64h134.586l-18.286-64zM856.868 576h-152.872v64h171.158l-18.286-64zM256 32c0-53.019 42.981-96 96-96s96 42.981 96 96c0 53.019-42.981 96-96 96s-96-42.981-96-96zM640 32c0-53.019 42.981-96 96-96s96 42.981 96 96c0 53.019-42.981 96-96 96s-96-42.981-96-96z" />
<glyph unicode="&#xe197;" d="M896 256v512c0 35.2-28.8 64-64 64h-640c-35.2 0-64-28.8-64-64v-512h-128v-192h1024v192h-128zM640 128h-256v64h256v-64zM832 256h-640v511.886c0.034 0.040 0.076 0.082 0.114 0.114h639.77c0.040-0.034 0.082-0.076 0.116-0.116v-511.884z" />
<glyph unicode="&#xe198;" d="M736 960h-448c-52.8 0-96-43.2-96-96v-832c0-52.8 43.2-96 96-96h448c52.8 0 96 43.2 96 96v832c0 52.8-43.2 96-96 96zM384 912h256v-32h-256v32zM512 0c-35.346 0-64 28.654-64 64s28.654 64 64 64 64-28.654 64-64-28.654-64-64-64zM768 192h-512v640h512v-640z" />
<glyph unicode="&#xe199;" d="M768 960h-576c-35.2 0-64-28.798-64-64v-896c0-35.2 28.798-64 64-64h576c35.2 0 64 28.8 64 64v896c0 35.202-28.8 64-64 64zM480-17.782c-27.492 0-49.782 22.29-49.782 49.782s22.29 49.782 49.782 49.782 49.782-22.29 49.782-49.782-22.29-49.782-49.782-49.782zM768 128h-576v704h576v-704z" />
<glyph unicode="&#xe19a;" d="M800 960h-640c-52.8 0-96-43.2-96-96v-832c0-52.8 43.2-96 96-96h640c52.8 0 96 43.2 96 96v832c0 52.8-43.2 96-96 96zM480-32c-17.672 0-32 14.326-32 32s14.328 32 32 32 32-14.326 32-32-14.328-32-32-32zM768 64h-576v768h576v-768z" />
<glyph unicode="&#xe1ae;" d="M512 896c282.77 0 512-186.25 512-416 0-229.752-229.23-416-512-416-27.156 0-53.81 1.734-79.824 5.044-109.978-109.978-241.25-129.7-368.176-132.596v26.916c68.536 33.578 128 94.74 128 164.636 0 9.754-0.758 19.33-2.164 28.696-115.796 76.264-189.836 192.754-189.836 323.304 0 229.75 229.23 416 512 416z" />
<glyph unicode="&#xe1af;" d="M1088 58.834c0-45.5 26.028-84.908 64-104.184v-15.938c-10.626-1.454-21.472-2.224-32.5-2.224-68.008 0-129.348 28.528-172.722 74.264-26.222-6.982-54.002-10.752-82.778-10.752-159.058 0-288 114.616-288 256s128.942 256 288 256c159.058 0 288-114.616 288-256 0-55.348-19.764-106.592-53.356-148.466-6.824-14.824-10.644-31.312-10.644-48.7zM512 960c278.458 0 504.992-180.614 511.836-405.52-49.182 21.92-103.586 33.52-159.836 33.52-95.56 0-185.816-33.446-254.138-94.178-70.846-62.972-109.862-147.434-109.862-237.822 0-44.672 9.544-87.888 27.736-127.788-5.228-0.126-10.468-0.212-15.736-0.212-27.156 0-53.81 1.734-79.824 5.044-109.978-109.978-241.25-129.7-368.176-132.596v26.916c68.536 33.578 128 94.74 128 164.636 0 9.754-0.758 19.33-2.164 28.696-115.796 76.264-189.836 192.754-189.836 323.304 0 229.75 229.23 416 512 416z" horiz-adv-x="1152" />
<glyph unicode="&#xe1b0;" d="M480 960v0c265.096 0 480-173.914 480-388.448s-214.904-388.448-480-388.448c-25.458 0-50.446 1.62-74.834 4.71-103.106-102.694-222.172-121.108-341.166-123.814v25.134c64.252 31.354 116 88.466 116 153.734 0 9.106-0.712 18.048-2.030 26.794-108.558 71.214-177.97 179.988-177.97 301.89 0 214.534 214.904 388.448 480 388.448zM996 89.314c0-55.942 36.314-104.898 92-131.772v-21.542c-103.126 2.318-197.786 18.102-287.142 106.126-21.14-2.65-42.794-4.040-64.858-4.040-95.47 0-183.408 25.758-253.614 69.040 144.674 0.506 281.26 46.854 384.834 130.672 52.208 42.252 93.394 91.826 122.414 147.348 30.766 58.866 46.366 121.582 46.366 186.406 0 10.448-0.45 20.836-1.258 31.168 72.57-59.934 117.258-141.622 117.258-231.676 0-104.488-60.158-197.722-154.24-258.764-1.142-7.496-1.76-15.16-1.76-22.966z" horiz-adv-x="1152" />
<glyph unicode="&#xe1b4;" d="M622.826 257.264c-22.11 3.518-22.614 64.314-22.614 64.314s64.968 64.316 79.128 150.802c38.090 0 61.618 91.946 23.522 124.296 1.59 34.054 48.96 267.324-190.862 267.324s-192.45-233.27-190.864-267.324c-38.094-32.35-14.57-124.296 23.522-124.296 14.158-86.486 79.128-150.802 79.128-150.802s-0.504-60.796-22.614-64.314c-71.22-11.332-337.172-128.634-337.172-257.264h896c0 128.63-265.952 245.932-337.174 257.264z" />
<glyph unicode="&#xe1b5;" d="M734.994 154.626c-18.952 2.988-19.384 54.654-19.384 54.654s55.688 54.656 67.824 128.152c32.652 0 52.814 78.138 20.164 105.628 1.362 28.94 41.968 227.176-163.598 227.176-205.564 0-164.958-198.236-163.598-227.176-32.654-27.49-12.488-105.628 20.162-105.628 12.134-73.496 67.826-128.152 67.826-128.152s-0.432-51.666-19.384-54.654c-61.048-9.632-289.006-109.316-289.006-218.626h768c0 109.31-227.958 208.994-289.006 218.626zM344.054 137.19c44.094 27.15 97.626 52.308 141.538 67.424-15.752 22.432-33.294 52.936-44.33 89.062-15.406 12.566-27.944 30.532-35.998 52.602-8.066 22.104-11.122 46.852-8.608 69.684 1.804 16.392 6.478 31.666 13.65 45.088-4.35 46.586-7.414 138.034 52.448 204.732 23.214 25.866 52.556 44.46 87.7 55.686-6.274 64.76-39.16 140.77-166.454 140.77-205.564 0-164.958-198.236-163.598-227.176-32.654-27.49-12.488-105.628 20.162-105.628 12.134-73.496 67.826-128.152 67.826-128.152s-0.432-51.666-19.384-54.654c-61.048-9.634-289.006-109.318-289.006-218.628h329.596c4.71 3.074 9.506 6.14 14.458 9.19z" />
<glyph unicode="&#xe1b8;" d="M256 640c0-141.385 114.615-256 256-256s256 114.615 256 256c0 141.385-114.615 256-256 256s-256-114.615-256-256zM768 320h-512c-141.384 0-256-114.618-256-256v-64h1024v64c0 141.382-114.616 256-256 256z" />
<glyph unicode="&#xe1bb;" d="M728.992 448c137.754 87.334 231.008 255.208 231.008 448 0 21.676-1.192 43.034-3.478 64h-889.042c-2.29-20.968-3.48-42.326-3.48-64 0-192.792 93.254-360.666 231.006-448-137.752-87.334-231.006-255.208-231.006-448 0-21.676 1.19-43.034 3.478-64h889.042c2.288 20.966 3.478 42.324 3.478 64 0.002 192.792-93.252 360.666-231.006 448zM160 0c0 186.912 80.162 345.414 224 397.708v100.586c-143.838 52.29-224 210.792-224 397.706v0h704c0-186.914-80.162-345.416-224-397.706v-100.586c143.838-52.294 224-210.796 224-397.708h-704zM619.626 290.406c-71.654 40.644-75.608 93.368-75.626 125.366v64.228c0 31.994 3.804 84.914 75.744 125.664 38.504 22.364 71.808 56.348 97.048 98.336h-409.582c25.266-42.032 58.612-76.042 97.166-98.406 71.654-40.644 75.606-93.366 75.626-125.366v-64.228c0-31.992-3.804-84.914-75.744-125.664-72.622-42.18-126.738-125.684-143.090-226.336h501.67c-16.364 100.708-70.53 184.248-143.212 226.406z" />
<glyph unicode="&#xe1c2;" d="M64 960h384v-64h-384zM576 960h384v-64h-384zM952 640h-56v256h-256v-256h-256v256h-256v-256h-56c-39.6 0-72-32.4-72-72v-560c0-39.6 32.4-72 72-72h304c39.6 0 72 32.4 72 72v376h128v-376c0-39.6 32.4-72 72-72h304c39.6 0 72 32.4 72 72v560c0 39.6-32.4 72-72 72zM348 0h-248c-19.8 0-36 14.4-36 32s16.2 32 36 32h248c19.8 0 36-14.4 36-32s-16.2-32-36-32zM544 448h-64c-17.6 0-32 14.4-32 32s14.4 32 32 32h64c17.6 0 32-14.4 32-32s-14.4-32-32-32zM924 0h-248c-19.8 0-36 14.4-36 32s16.2 32 36 32h248c19.8 0 36-14.4 36-32s-16.2-32-36-32z" />
<glyph unicode="&#xe1dd;" d="M771.516 640c18.126 12.88 35.512 27.216 51.444 43.148 33.402 33.402 55.746 74.5 62.912 115.722 7.858 45.186-3.672 87.14-31.63 115.1-22.3 22.298-52.51 34.086-87.364 34.086-49.632 0-101.922-23.824-143.46-65.362-66.476-66.476-105.226-158.238-126.076-223.722-15.44 65.802-46.206 154.644-106.018 214.458-32.094 32.092-73.114 48.57-111.846 48.57-31.654 0-61.78-11.004-84.26-33.486-49.986-49.988-43.232-137.786 15.086-196.104 20.792-20.792 45.098-38.062 70.72-52.412h-217.024v-256h64v-448h768v448.002h64v256h-188.484zM674.326 831.782c27.724 27.724 62.322 44.274 92.55 44.274 10.7 0 25.708-2.254 36.45-12.998 26.030-26.028 11.412-86.308-31.28-128.998-43.946-43.946-103.060-74.168-154.432-94.060h-50.672c18.568 57.548 52.058 136.456 107.384 191.782zM233.934 799.11c-0.702 9.12-0.050 26.248 12.196 38.494 10.244 10.244 23.788 12.396 33.348 12.396v0c21.258 0 43.468-10.016 60.932-27.48 33.872-33.872 61.766-87.772 80.668-155.876 0.51-1.84 1.008-3.67 1.496-5.486-1.816 0.486-3.646 0.984-5.486 1.496-68.104 18.904-122.002 46.798-155.874 80.67-15.828 15.826-25.77 36.16-27.28 55.786zM448 0h-256v416h256v-416zM448 448h-320v128h320v-128zM832 0h-256v416h256v-416zM896 448h-320v128h320v-128z" />
<glyph unicode="&#xe1de;" d="M832 768v128h-640v-128h-192v-128c0-106.038 85.958-192 192-192 20.076 0 39.43 3.086 57.62 8.802 46.174-66.008 116.608-113.796 198.38-130.396v-198.406h-64c-70.694 0-128-57.306-128-128h512c0 70.694-57.306 128-128 128h-64v198.406c81.772 16.6 152.206 64.386 198.38 130.396 18.19-5.716 37.544-8.802 57.62-8.802 106.042 0 192 85.962 192 192v128h-192zM192 524c-63.962 0-116 52.038-116 116v64h116v-64c0-40.186 7.43-78.632 20.954-114.068-6.802-1.246-13.798-1.932-20.954-1.932zM948 640c0-63.962-52.038-116-116-116-7.156 0-14.152 0.686-20.954 1.932 13.524 35.436 20.954 73.882 20.954 114.068v64h116v-64z" />
<glyph unicode="&#xe1e8;" d="M321.008-64c-68.246 142.008-31.902 223.378 20.55 300.044 57.44 83.956 72.244 167.066 72.244 167.066s45.154-58.7 27.092-150.508c79.772 88.8 94.824 230.28 82.782 284.464 180.314-126.012 257.376-398.856 153.522-601.066 552.372 312.532 137.398 780.172 65.154 832.85 24.082-52.676 28.648-141.85-20-185.126-82.352 312.276-285.972 376.276-285.972 376.276 24.082-161.044-87.296-337.144-194.696-468.73-3.774 64.216-7.782 108.528-41.55 169.98-7.58-116.656-96.732-211.748-120.874-328.628-32.702-158.286 24.496-274.18 241.748-396.622z" />
<glyph unicode="&#xe600;" d="M669.143 486.286l-241.143-241.143q-10.857-10.857-25.714-10.857t-25.714 10.857l-168 168q-10.857 10.857-10.857 25.714t10.857 25.714l58.286 58.286q10.857 10.857 25.714 10.857t25.714-10.857l84-84 157.143 157.143q10.857 10.857 25.714 10.857t25.714-10.857l58.286-58.286q10.857-10.857 10.857-25.714t-10.857-25.714zM749.714 438.857q0 84.571-41.714 156t-113.143 113.143-156 41.714-156-41.714-113.143-113.143-41.714-156 41.714-156 113.143-113.143 156-41.714 156 41.714 113.143 113.143 41.714 156zM877.714 438.857q0-119.429-58.857-220.286t-159.714-159.714-220.286-58.857-220.286 58.857-159.714 159.714-58.857 220.286 58.857 220.286 159.714 159.714 220.286 58.857 220.286-58.857 159.714-159.714 58.857-220.286z" horiz-adv-x="878" />
<glyph unicode="&#xe601;" d="M656.571 309.714q0 14.857-10.857 25.714l-103.429 103.429 103.429 103.429q10.857 10.857 10.857 25.714 0 15.429-10.857 26.286l-51.429 51.429q-10.857 10.857-26.286 10.857-14.857 0-25.714-10.857l-103.429-103.429-103.429 103.429q-10.857 10.857-25.714 10.857-15.429 0-26.286-10.857l-51.429-51.429q-10.857-10.857-10.857-26.286 0-14.857 10.857-25.714l103.429-103.429-103.429-103.429q-10.857-10.857-10.857-25.714 0-15.429 10.857-26.286l51.429-51.429q10.857-10.857 26.286-10.857 14.857 0 25.714 10.857l103.429 103.429 103.429-103.429q10.857-10.857 25.714-10.857 15.429 0 26.286 10.857l51.429 51.429q10.857 10.857 10.857 26.286zM877.714 438.857q0-119.429-58.857-220.286t-159.714-159.714-220.286-58.857-220.286 58.857-159.714 159.714-58.857 220.286 58.857 220.286 159.714 159.714 220.286 58.857 220.286-58.857 159.714-159.714 58.857-220.286z" horiz-adv-x="878" />
<glyph unicode="&#xe602;" d="M741.714 195.428q0-22.857-16-38.857l-77.714-77.714q-16-16-38.857-16t-38.857 16l-168 168-168-168q-16-16-38.857-16t-38.857 16l-77.714 77.714q-16 16-16 38.857t16 38.857l168 168-168 168q-16 16-16 38.857t16 38.857l77.714 77.714q16 16 38.857 16t38.857-16l168-168 168 168q16 16 38.857 16t38.857-16l77.714-77.714q16-16 16-38.857t-16-38.857l-168-168 168-168q16-16 16-38.857z" horiz-adv-x="805" />
<glyph unicode="&#xe603;" d="M954.857 627.428q0-22.857-16-38.857l-491.429-491.429q-16-16-38.857-16t-38.857 16l-284.571 284.571q-16 16-16 38.857t16 38.857l77.714 77.714q16 16 38.857 16t38.857-16l168-168.571 374.857 375.429q16 16 38.857 16t38.857-16l77.714-77.714q16-16 16-38.857z" />
<glyph unicode="&#xe604;" d="M640 420.571q0-6.857-5.714-13.714l-182.286-182.286q-6.286-5.143-13.143-5.143t-13.143 5.143l-182.857 182.857q-8.571 9.143-4 20 4.571 11.429 17.143 11.429h109.714v201.143q0 8 5.143 13.143t13.143 5.143h109.714q8 0 13.143-5.143t5.143-13.143v-201.143h109.714q8 0 13.143-5.143t5.143-13.143zM438.857 749.714q-84.571 0-156-41.714t-113.143-113.143-41.714-156 41.714-156 113.143-113.143 156-41.714 156 41.714 113.143 113.143 41.714 156-41.714 156-113.143 113.143-156 41.714zM877.714 438.857q0-119.429-58.857-220.286t-159.714-159.714-220.286-58.857-220.286 58.857-159.714 159.714-58.857 220.286 58.857 220.286 159.714 159.714 220.286 58.857 220.286-58.857 159.714-159.714 58.857-220.286z" horiz-adv-x="878" />
<glyph unicode="&#xe605;" d="M548.571 566.857q68 0 116.286-48.286t48.286-116.286-48.286-116.286-116.286-48.286-116.286 48.286-48.286 116.286 48.286 116.286 116.286 48.286zM950.857 804.571q60.571 0 103.429-42.857t42.857-103.429v-512q0-60.571-42.857-103.429t-103.429-42.857h-804.571q-60.571 0-103.429 42.857t-42.857 103.429v512q0 60.571 42.857 103.429t103.429 42.857h128l29.143 77.714q10.857 28 39.714 48.286t59.143 20.286h292.571q30.286 0 59.143-20.286t39.714-48.286l29.143-77.714h128zM548.571 146.286q105.714 0 180.857 75.143t75.143 180.857-75.143 180.857-180.857 75.143-180.857-75.143-75.143-180.857 75.143-180.857 180.857-75.143z" horiz-adv-x="1097" />
<glyph unicode="&#xe606;" d="M409.714 153.714l259.429 259.429q10.857 10.857 10.857 25.714t-10.857 25.714l-259.429 259.429q-10.857 10.857-25.714 10.857t-25.714-10.857l-58.286-58.286q-10.857-10.857-10.857-25.714t10.857-25.714l175.429-175.429-175.429-175.429q-10.857-10.857-10.857-25.714t10.857-25.714l58.286-58.286q10.857-10.857 25.714-10.857t25.714 10.857zM877.714 438.857q0-119.429-58.857-220.286t-159.714-159.714-220.286-58.857-220.286 58.857-159.714 159.714-58.857 220.286 58.857 220.286 159.714 159.714 220.286 58.857 220.286-58.857 159.714-159.714 58.857-220.286z" horiz-adv-x="878" />
<glyph unicode="&#xe607;" d="M733.714 531.428q0 16-10.286 26.286l-52 51.429q-10.857 10.857-25.714 10.857t-25.714-10.857l-233.143-232.571-129.143 129.143q-10.857 10.857-25.714 10.857t-25.714-10.857l-52-51.429q-10.286-10.286-10.286-26.286 0-15.429 10.286-25.714l206.857-206.857q10.857-10.857 25.714-10.857 15.429 0 26.286 10.857l310.286 310.286q10.286 10.286 10.286 25.714zM877.714 438.857q0-119.429-58.857-220.286t-159.714-159.714-220.286-58.857-220.286 58.857-159.714 159.714-58.857 220.286 58.857 220.286 159.714 159.714 220.286 58.857 220.286-58.857 159.714-159.714 58.857-220.286z" horiz-adv-x="878" />
<glyph unicode="&#xe608;" d="M841.143 402.286q0-30.857-21.143-52l-372-372q-22.286-21.143-52-21.143-29.143 0-51.429 21.143l-42.857 42.857q-21.714 21.714-21.714 52t21.714 52l167.429 167.429h-402.286q-29.714 0-48.286 21.429t-18.571 51.714v73.143q0 30.286 18.571 51.714t48.286 21.429h402.286l-167.429 168q-21.714 20.571-21.714 51.429t21.714 51.429l42.857 42.857q21.714 21.714 51.429 21.714 30.286 0 52-21.714l372-372q21.143-20 21.143-51.429z" horiz-adv-x="878" />
<glyph unicode="&#xe609;" d="M960 448h-896q-27 0-45.5 18.5t-18.5 45 18.5 45.5 45.5 19h56q20-30 51.5-47t68.5-17 68.5 17 51.5 47h304q20-30 51.5-47t68.5-17 68.5 17 51.5 47h56q27 0 45.5-19t18.5-45.5-18.5-45-45.5-18.5zM806 582q-19-11-40-5t-32 25l-151 278q-11 19-5.5 40.5t24.5 32.5 40 5 32-25l151-278q11-19 5.5-40.5t-24.5-32.5zM290 602q-11-19-32-25t-40 5-24.5 32.5 5.5 40.5l151 278q11 19 32 25t40-5 24.5-32.5-5.5-40.5zM896 0q-8-40-29.5-52t-65.5-12h-574q-45 0-68 12t-31 52l-64 384h896z" />
<glyph unicode="&#xe60a;" d="M365.857 493.714v-36.571q0-7.429 5.429-12.857t12.857-5.429h128v-128q0-7.429 5.429-12.857t12.857-5.429h36.571q7.429 0 12.857 5.429t5.429 12.857v128h128q7.429 0 12.857 5.429t5.429 12.857v36.571q0 7.429-5.429 12.857t-12.857 5.429h-128v128q0 7.429-5.429 12.857t-12.857 5.429h-36.571q-7.429 0-12.857-5.429t-5.429-12.857v-128h-128q-7.429 0-12.857-5.429t-5.429-12.857zM292.714 475.428q0 105.714 75.143 180.857t180.857 75.143 180.857-75.143 75.143-180.857-75.143-180.857-180.857-75.143-180.857 75.143-75.143 180.857zM0.143 0q0-30.286 21.429-51.714t51.714-21.429q30.857 0 51.429 21.714l196 195.429q102.286-70.857 228-70.857 81.714 0 156.286 31.714t128.571 85.714 85.714 128.571 31.714 156.286-31.714 156.286-85.714 128.571-128.571 85.714-156.286 31.714-156.286-31.714-128.571-85.714-85.714-128.571-31.714-156.286q0-125.714 70.857-228l-196-196q-21.143-21.143-21.143-51.429z" horiz-adv-x="951" />
<glyph unicode="&#xe60b;" d="M512 960v0 0zM768 896q106 0 181 18.5t75 45.5v-256h-1024v256q0-27 75-45.5t181-18.5 181 18.5 75 45.5q0-27 75-45.5t181-18.5zM512-64q-94 27-168.5 65.5t-125 78.5-88.5 97-59.5 104-36.5 116.5-21.5 118-12.5 124.5h1024q-6-76-12.5-124.5t-21.5-118-36.5-116.5-59.5-104-88.5-97-125-78.5-168.5-65.5z" />
<glyph unicode="&#xe60c;" d="M1024 64q0-31-27-54t-71.5-37-112-22.5-139-11.5-162.5-3q-110 0-200 8t-161.5 24.5-111 45-39.5 66.5q0 42 51 87.5t139.5 83 193.5 55.5v78q0 107-40 206-18-19-46-58t-49-67.5-53-53-65-27.5q-3 14-3 29.5t1.5 36 1.5 31.5q0 65 30.5 123t81.5 100h-19q-69 0-118.5-53t-73.5-139q-9 9-20.5 31.5t-11.5 44.5q0 112 64.5 178t159.5 66q105 0 154-54 18 79 81.5 130.5t145.5 51.5q96 0 161.5-50t65.5-142q-73 64-192 64-49 0-75.5-19.5t-41.5-57.5q41 13 83 13 94 0 160-51t66-123q0-45-27.5-83.5t-74.5-62.5q-17 85-75 133.5t-142 56.5q10-20 21-50.5t26.5-108.5 15.5-159v-1q105-6 211-48.5t171.5-99.5 65.5-107z" />
<glyph unicode="&#xe60d;" d="M434.592-0.224c227.264 0 427.872 125.952 427.872 335.84 0 76.576-35.808 123.488-50.816 148.192-12.512 14.816-12.512 27.168 17.504 29.632 117.344 17.28 194.752 81.504 194.752 204.96 0 66.688-54.944 146.88-154.816 146.88-47.424 0-105.376-45.632-105.376-95.008 0-27.2 27.968-59.648 67.904-59.648 44.96 0 70.432 47.296 62.944 67.072-2.464 12.352-10.464 27.168 6.976 27.168 32.512 0 69.952-41.984 69.952-81.504 0-69.152-64.928-116.672-167.328-116.672-54.944 0-102.368 33.888-154.816 33.888-132.352 0-209.76-104.896-209.76-196.288 0-103.712 79.904-153.088 139.84-153.088 67.392 0 87.392 39.488 87.392 71.616 0 37.024-22.496 61.728-69.952 61.728-37.44 0-54.944-39.488-52.448-59.264 2.496-9.888-4.992-17.28-12.512-17.28-9.984 0-39.936 32.096-39.936 74.048 0 29.664 20 127.136 124.864 127.136 112.352 0 190.624-102.4 190.624-186.368 0-118.528-133.216-244.512-360.448-244.512-227.264 0-357.088 103.712-357.088 254.368 0 69.152 29.984 133.344 67.392 160.512 15.008 9.888 22.496 7.392 29.984-4.928 17.504-12.352 57.44-45.632 82.4-45.632 32.48 0 49.952 40.672 49.952 75.296 0 29.632-34.944 49.984-64.896 49.984s-49.952-17.888-62.432-22.816c-17.472 27.168-27.456 61.728-27.456 88.896 0 79.008 57.44 128.608 112.384 128.608 47.424 0 87.392-37.216 79.904-84.16-2.496-12.352-2.496-22.208 2.496-22.208 19.968 0 64.896 29.632 64.896 83.968 0 76.544-57.408 116.064-132.352 116.064-122.336 0-197.248-86.432-197.248-177.824 0-54.304 19.968-103.712 52.448-145.696-49.952-22.208-147.328-106.176-147.328-254.368 0.032-125.952 87.424-318.592 434.528-318.592z" />
<glyph unicode="&#xe60e;" d="M628 475.428q0-29.714-21.143-52l-372.571-372q-21.143-21.143-51.429-21.143t-51.429 21.143l-43.429 42.857q-21.143 22.286-21.143 52 0 30.286 21.143 51.429l277.714 277.714-277.714 277.143q-21.143 22.286-21.143 52 0 30.286 21.143 51.429l43.429 42.857q20.571 21.714 51.429 21.714t51.429-21.714l372.571-372q21.143-21.143 21.143-51.429z" horiz-adv-x="658" />
<glyph unicode="&#xe60f;" d="M424 52l-372.571 372q-21.143 21.143-21.143 51.714t21.143 51.714l372.571 372q21.143 21.143 51.714 21.143t51.714-21.143l42.857-42.857q21.143-21.143 21.143-51.714t-21.143-51.714l-277.714-277.714 277.714-277.143q21.143-21.714 21.143-52t-21.143-51.429l-42.857-42.857q-21.143-21.143-51.714-21.143t-51.714 21.143z" horiz-adv-x="658" />
<glyph unicode="&#xe610;" d="M877.714 438.857v-73.143q0-30.286-18.571-51.714t-48.286-21.429h-402.286l167.429-168q21.714-20.571 21.714-51.429t-21.714-51.429l-42.857-43.429q-21.143-21.143-51.429-21.143-29.714 0-52 21.143l-372 372.571q-21.143 21.143-21.143 51.429 0 29.714 21.143 52l372 371.429q21.714 21.714 52 21.714 29.714 0 51.429-21.714l42.857-42.286q21.714-21.714 21.714-52t-21.714-52l-167.429-167.429h402.286q29.714 0 48.286-21.429t18.571-51.714z" horiz-adv-x="878" />
<glyph unicode="&#xe611;" d="M920.571 256q0-30.286-21.143-51.429l-42.857-42.857q-21.714-21.714-52-21.714-30.857 0-51.429 21.714l-277.714 277.143-277.714-277.143q-20.571-21.714-51.429-21.714t-51.429 21.714l-42.857 42.857q-21.714 20.571-21.714 51.429 0 30.286 21.714 52l372 372q21.143 21.143 51.429 21.143 29.714 0 52-21.143l371.429-372q21.714-21.714 21.714-52z" horiz-adv-x="951" />
<glyph unicode="&#xe612;" d="M920.571 548.571q0-30.286-21.143-51.429l-372-372q-21.714-21.714-52-21.714-30.857 0-51.429 21.714l-372 372q-21.714 20.571-21.714 51.429 0 30.286 21.714 52l42.286 42.857q22.286 21.143 52 21.143 30.286 0 51.429-21.143l277.714-277.714 277.714 277.714q21.143 21.143 51.429 21.143 29.714 0 52-21.143l42.857-42.857q21.143-22.286 21.143-52z" horiz-adv-x="951" />
<glyph unicode="&#xe613;" d="M1024 288q0-27-41-65t-107.5-73.5-165-60.5-198.5-25-198 25-165 60.5-108 73.5-41 65q0 53 170 77 9 62 22 122.5t32 128.5 44.5 110 51.5 42q28 0 94.5-32t97.5-32q27 0 52 10t42 22 43 22 55 10q28 0 73-135t74-267q173-24 173-78z" />
<glyph unicode="&#xe614;" d="M512-64q-139 0-257 68.5t-186.5 186.5-68.5 257 68.5 257 186.5 186.5 257 68.5 257-68.5 186.5-186.5 68.5-257-68.5-257-186.5-186.5-257-68.5zM384 19q63-19 128-19t128 19v208q-59-35-127.5-35t-128.5 35v-208zM291 576h-208q-19-63-19-128t19-128h208q-35 60-35 128t35 128zM640 877q-63 19-128 19t-128-19v-208q60 35 128 35t128-35v208zM512 640q-80 0-136-56t-56-136 56-136 136-56 136 56 56 136-56 136-136 56zM733 576q35-60 35-128t-35-128h208q19 63 19 128t-19 128h-208z" />
<glyph unicode="&#xe615;" d="M519.429 153.714l58.286 58.286q10.857 10.857 10.857 25.714t-10.857 25.714l-175.429 175.429 175.429 175.429q10.857 10.857 10.857 25.714t-10.857 25.714l-58.286 58.286q-10.857 10.857-25.714 10.857t-25.714-10.857l-259.429-259.429q-10.857-10.857-10.857-25.714t10.857-25.714l259.429-259.429q10.857-10.857 25.714-10.857t25.714 10.857zM877.714 438.857q0-119.429-58.857-220.286t-159.714-159.714-220.286-58.857-220.286 58.857-159.714 159.714-58.857 220.286 58.857 220.286 159.714 159.714 220.286 58.857 220.286-58.857 159.714-159.714 58.857-220.286z" horiz-adv-x="878" />
<glyph unicode="&#xe616;" d="M665.714 300l58.286 58.286q10.857 10.857 10.857 25.714t-10.857 25.714l-259.429 259.429q-10.857 10.857-25.714 10.857t-25.714-10.857l-259.429-259.429q-10.857-10.857-10.857-25.714t10.857-25.714l58.286-58.286q10.857-10.857 25.714-10.857t25.714 10.857l175.429 175.429 175.429-175.429q10.857-10.857 25.714-10.857t25.714 10.857zM877.714 438.857q0-119.429-58.857-220.286t-159.714-159.714-220.286-58.857-220.286 58.857-159.714 159.714-58.857 220.286 58.857 220.286 159.714 159.714 220.286 58.857 220.286-58.857 159.714-159.714 58.857-220.286z" horiz-adv-x="878" />
<glyph unicode="&#xe617;" d="M464.571 208.571l259.429 259.429q10.857 10.857 10.857 25.714t-10.857 25.714l-58.286 58.286q-10.857 10.857-25.714 10.857t-25.714-10.857l-175.429-175.429-175.429 175.429q-10.857 10.857-25.714 10.857t-25.714-10.857l-58.286-58.286q-10.857-10.857-10.857-25.714t10.857-25.714l259.429-259.429q10.857-10.857 25.714-10.857t25.714 10.857zM877.714 438.857q0-119.429-58.857-220.286t-159.714-159.714-220.286-58.857-220.286 58.857-159.714 159.714-58.857 220.286 58.857 220.286 159.714 159.714 220.286 58.857 220.286-58.857 159.714-159.714 58.857-220.286z" horiz-adv-x="878" />
<glyph unicode="&#xe618;" d="M877.714 182.857v-73.143q0-14.857-10.857-25.714t-25.714-10.857h-804.571q-14.857 0-25.714 10.857t-10.857 25.714v73.143q0 14.857 10.857 25.714t25.714 10.857h804.571q14.857 0 25.714-10.857t10.857-25.714zM877.714 475.428v-73.143q0-14.857-10.857-25.714t-25.714-10.857h-804.571q-14.857 0-25.714 10.857t-10.857 25.714v73.143q0 14.857 10.857 25.714t25.714 10.857h804.571q14.857 0 25.714-10.857t10.857-25.714zM877.714 768v-73.143q0-14.857-10.857-25.714t-25.714-10.857h-804.571q-14.857 0-25.714 10.857t-10.857 25.714v73.143q0 14.857 10.857 25.714t25.714 10.857h804.571q14.857 0 25.714-10.857t10.857-25.714z" horiz-adv-x="878" />
<glyph unicode="&#xe619;" d="M438.857 585.143q0 60.571-42.857 103.429t-103.429 42.857-103.429-42.857-42.857-103.429 42.857-103.429 103.429-42.857 103.429 42.857 42.857 103.429zM585.143 585.143q0-62.286-18.857-102.286l-208-442.286q-9.143-18.857-27.143-29.714t-38.571-10.857-38.571 10.857-26.571 29.714l-208.571 442.286q-18.857 40-18.857 102.286 0 121.143 85.714 206.857t206.857 85.714 206.857-85.714 85.714-206.857z" horiz-adv-x="585" />
<glyph unicode="&#xe61a;" d="M510.016-64c0 0-318.016 449.984-318.016 641.984 0 378.016 318.016 382.016 318.016 382.016s321.984-4 321.984-380c0-197.984-321.984-644-321.984-644zM512 768c-70.688 0-128-57.312-128-128s57.312-128 128-128 128 57.312 128 128-57.312 128-128 128z" />
<glyph unicode="&#xe61b;" d="M877.714 822.857v-640q0-28.571-19.429-50.857t-49.143-34.571-59.143-18.286-55.143-6-55.143 6-59.143 18.286-49.143 34.571-19.429 50.857 19.429 50.857 49.143 34.571 59.143 18.286 55.143 6q60 0 109.714-22.286v306.857l-438.857-135.429v-405.143q0-28.571-19.429-50.857t-49.143-34.571-59.143-18.286-55.143-6-55.143 6-59.143 18.286-49.143 34.571-19.429 50.857 19.429 50.857 49.143 34.571 59.143 18.286 55.143 6q60 0 109.714-22.286v552.571q0 17.714 10.857 32.286t28 20.286l475.429 146.286q6.857 2.286 16 2.286 22.857 0 38.857-16t16-38.857z" horiz-adv-x="878" />
<glyph unicode="&#xe61c;" d="M970.857 844.571q0-20-24.571-44.571l-361.143-361.143v-438.857h182.857q14.857 0 25.714-10.857t10.857-25.714-10.857-25.714-25.714-10.857h-512q-14.857 0-25.714 10.857t-10.857 25.714 10.857 25.714 25.714 10.857h182.857v438.857l-361.143 361.143q-24.571 24.571-24.571 44.571 0 13.143 10.286 20.857t21.714 10 24.571 2.286h804.571q13.143 0 24.571-2.286t21.714-10 10.286-20.857z" />
<glyph unicode="&#xe61d;" d="M1024 768h-1024l511.264-640 512.736 640z" />
<glyph unicode="&#xe61e;" d="M0 128h1024l-511.264 640-512.736-640z" />
<glyph unicode="&#xe61f;" d="M832-64v1024l-640-511.264 640-512.736z" />
<glyph unicode="&#xe620;" d="M192 960v-1024l640 511.264-640 512.736z" />
<glyph unicode="&#xe621;" d="M384 960l-384-512h384l-256-512 896 640h-512l384 384z" />
<glyph unicode="&#xe622;" d="M852 960h-680c-94.6 0-172-77.4-172-172v-680c0-94.6 77.4-172 172-172h680c94.6 0 172 77.4 172 172v680c0 94.6-77.4 172-172 172zM384 128h-128v448h128v-448zM320 640c-35.346 0-64 28.654-64 64s28.654 64 64 64 64-28.654 64-64-28.654-64-64-64zM832 128h-128v256c0 35.346-28.654 64-64 64s-64-28.654-64-64v-256h-128v448h128v-79.472c26.398 36.264 66.752 79.472 112 79.472 79.53 0 144-71.634 144-160v-288z" />
<glyph unicode="&#xe623;" d="M896-64h-768q-53 0-90.5 37.5t-37.5 90.5v32q0 13 9.5 22.5t22.5 9.5h224q53 0 90.5 37.5t37.5 90.5v608q0 13 9.5 22.5t22.5 9.5h480q53 0 90.5-37.5t37.5-90.5v-704q0-53-37.5-90.5t-90.5-37.5zM640 96q0-13 9.5-22.5t22.5-9.5h64q13 0 22.5 9.5t9.5 22.5v64q0 13-9.5 22.5t-22.5 9.5h-64q-13 0-22.5-9.5t-9.5-22.5v-64zM640 288q0-13 9.5-22.5t22.5-9.5h64q13 0 22.5 9.5t9.5 22.5v64q0 13-9.5 22.5t-22.5 9.5h-64q-13 0-22.5-9.5t-9.5-22.5v-64zM640 480q0-13 9.5-22.5t22.5-9.5h64q13 0 22.5 9.5t9.5 22.5v64q0 13-9.5 22.5t-22.5 9.5h-64q-13 0-22.5-9.5t-9.5-22.5v-64zM448 96q0-13 9.5-22.5t22.5-9.5h64q13 0 22.5 9.5t9.5 22.5v64q0 13-9.5 22.5t-22.5 9.5h-64q-13 0-22.5-9.5t-9.5-22.5v-64zM448 288q0-13 9.5-22.5t22.5-9.5h64q13 0 22.5 9.5t9.5 22.5v64q0 13-9.5 22.5t-22.5 9.5h-64q-13 0-22.5-9.5t-9.5-22.5v-64zM448 480q0-13 9.5-22.5t22.5-9.5h64q13 0 22.5 9.5t9.5 22.5v64q0 13-9.5 22.5t-22.5 9.5h-64q-13 0-22.5-9.5t-9.5-22.5v-64zM960 736q0 13-9.5 22.5t-22.5 9.5h-448q-13 0-22.5-9.5t-9.5-22.5v-64q0-13 9.5-22.5t22.5-9.5h448q13 0 22.5 9.5t9.5 22.5v64zM960 544q0 13-9.5 22.5t-22.5 9.5h-64q-13 0-22.5-9.5t-9.5-22.5v-64q0-13 9.5-22.5t22.5-9.5h64q13 0 22.5 9.5t9.5 22.5v64zM960 352q0 13-9.5 22.5t-22.5 9.5h-64q-13 0-22.5-9.5t-9.5-22.5v-64q0-13 9.5-22.5t22.5-9.5h64q13 0 22.5 9.5t9.5 22.5v64zM960 160q0 13-9.5 22.5t-22.5 9.5h-64q-13 0-22.5-9.5t-9.5-22.5v-64q0-13 9.5-22.5t22.5-9.5h64q13 0 22.5 9.5t9.5 22.5v64zM256 192h-192q-26 0-45 18.5t-19 45.5v640q0 26 19 45t45 19h192q26 0 45-19t19-45v-640q0-27-18.5-45.5t-45.5-18.5z" />
<glyph unicode="&#xe624;" d="M896 896l128-256h-256zM576 896h256l-128-256zM384 640l128 256 128-256h-256zM192 896h256l-128-256zM0 640l128 256 128-256h-256zM448 0l-448 576h256zM704 576l-192-576-192 576h384zM1024 576l-448-576 192 576h256z" />
<glyph unicode="&#xe625;" d="M219.429 73.143h512v146.286h-512v-146.286zM219.429 438.857h512v219.429h-91.429q-22.857 0-38.857 16t-16 38.857v91.429h-365.714v-365.714zM877.714 402.286q0 14.857-10.857 25.714t-25.714 10.857-25.714-10.857-10.857-25.714 10.857-25.714 25.714-10.857 25.714 10.857 10.857 25.714zM950.857 402.286v-237.714q0-7.429-5.429-12.857t-12.857-5.429h-128v-91.429q0-22.857-16-38.857t-38.857-16h-548.571q-22.857 0-38.857 16t-16 38.857v91.429h-128q-7.429 0-12.857 5.429t-5.429 12.857v237.714q0 45.143 32.286 77.429t77.429 32.286h36.571v310.857q0 22.857 16 38.857t38.857 16h384q22.857 0 50.286-11.429t43.429-27.429l86.857-86.857q16-16 27.429-43.429t11.429-50.286v-146.286h36.571q45.143 0 77.429-32.286t32.286-77.429z" horiz-adv-x="951" />
<glyph unicode="&#xe626;" d="M1024 677.5l-90.506 90.5-178.746-178.752-101.5 101.502 178.75 178.75-90.5 90.5-178.75-178.75-114.748 114.75-86.626-86.624 512.002-512.002 86.624 86.624-114.752 114.752zM274.748 210.746c165.768-165.762 385.194-36.362 519.292 75.464l-443.824 443.824c-111.824-134.096-241.228-353.522-75.468-519.288zM191.998 255.996l127.994-127.996-191.992-191.992-127.996 127.994z" />
<glyph unicode="&#xe627;" d="M1004.5 404.5q-19.5-19.5-47-19.5t-46.5 19l-15 15v-419q0-26-18.5-45t-45.5-19h-192v288q0 13-9.5 22.5t-22.5 9.5h-192q-13 0-22.5-9.5t-9.5-22.5v-288h-192q-27 0-45.5 19t-18.5 45v419l-15-15q-19-19-46.5-19t-47 19.5-19.5 47 19 46.5l444 444q20 20 49 19 29 1 49-19l444-444q19-19 19-46.5t-19.5-47z" />
<glyph unicode="&#xe628;" d="M585.143 438.857q0 60.571-42.857 103.429t-103.429 42.857-103.429-42.857-42.857-103.429 42.857-103.429 103.429-42.857 103.429 42.857 42.857 103.429zM877.714 501.143v-126.857q0-6.857-4.571-13.143t-11.429-7.429l-105.714-16q-10.857-30.857-22.286-52 20-28.571 61.143-78.857 5.714-6.857 5.714-14.286t-5.143-13.143q-15.429-21.143-56.571-61.714t-53.714-40.571q-6.857 0-14.857 5.143l-78.857 61.714q-25.143-13.143-52-21.714-9.143-77.714-16.571-106.286-4-16-20.571-16h-126.857q-8 0-14 4.857t-6.571 12.286l-16 105.143q-28 9.143-51.429 21.143l-80.571-61.143q-5.714-5.143-14.286-5.143-8 0-14.286 6.286-72 65.143-94.286 96-4 5.714-4 13.143 0 6.857 4.571 13.143 8.571 12 29.143 38t30.857 40.286q-15.429 28.571-23.429 56.571l-104.571 15.429q-7.429 1.143-12 7.143t-4.571 13.429v126.857q0 6.857 4.571 13.143t10.857 7.429l106.286 16q8 26.286 22.286 52.571-22.857 32.571-61.143 78.857-5.714 6.857-5.714 13.714 0 5.714 5.143 13.143 14.857 20.571 56.286 61.429t54 40.857q7.429 0 14.857-5.714l78.857-61.143q25.143 13.143 52 21.714 9.143 77.714 16.571 106.286 4 16 20.571 16h126.857q8 0 14-4.857t6.571-12.286l16-105.143q28-9.143 51.429-21.143l81.143 61.143q5.143 5.143 13.714 5.143 7.429 0 14.286-5.714 73.714-68 94.286-97.143 4-4.571 4-12.571 0-6.857-4.571-13.143-8.571-12-29.143-38t-30.857-40.286q14.857-28.571 23.429-56l104.571-16q7.429-1.143 12-7.143t4.571-13.429z" horiz-adv-x="878" />
<glyph unicode="&#xe629;" d="M207.429 73.143l52 52-134.286 134.286-52-52v-61.143h73.143v-73.143h61.143zM506.286 603.428q0 12.571-12.571 12.571-5.714 0-9.714-4l-309.714-309.714q-4-4-4-9.714 0-12.571 12.571-12.571 5.714 0 9.714 4l309.714 309.714q4 4 4 9.714zM475.429 713.143l237.714-237.714-475.429-475.429h-237.714v237.714zM865.714 658.286q0-30.286-21.143-51.429l-94.857-94.857-237.714 237.714 94.857 94.286q20.571 21.714 51.429 21.714 30.286 0 52-21.714l134.286-133.714q21.143-22.286 21.143-52z" horiz-adv-x="878" />
<glyph unicode="&#xe62a;" d="M512 164.571v109.714q0 8-5.143 13.143t-13.143 5.143h-109.714q-8 0-13.143-5.143t-5.143-13.143v-109.714q0-8 5.143-13.143t13.143-5.143h109.714q8 0 13.143 5.143t5.143 13.143zM658.286 548.571q0 50.286-31.714 93.143t-79.143 66.286-97.143 23.429q-138.857 0-212-121.714-8.571-13.714 4.571-24l75.429-57.143q4-3.429 10.857-3.429 9.143 0 14.286 6.857 30.286 38.857 49.143 52.571 19.429 13.714 49.143 13.714 27.429 0 48.857-14.857t21.429-33.714q0-21.714-11.429-34.857t-38.857-25.714q-36-16-66-49.429t-30-71.714v-20.571q0-8 5.143-13.143t13.143-5.143h109.714q8 0 13.143 5.143t5.143 13.143q0 10.857 12.286 28.286t31.143 28.286q18.286 10.286 28 16.286t26.286 20 25.429 27.429 16 34.571 7.143 46.286zM877.714 438.857q0-119.429-58.857-220.286t-159.714-159.714-220.286-58.857-220.286 58.857-159.714 159.714-58.857 220.286 58.857 220.286 159.714 159.714 220.286 58.857 220.286-58.857 159.714-159.714 58.857-220.286z" horiz-adv-x="878" />
<glyph unicode="&#xe62b;" d="M358.286 640q0-7.429-5.714-13.143l-224.571-224.571 224.571-224.571q5.714-5.714 5.714-13.143t-5.714-13.143l-28.571-28.571q-5.714-5.714-13.143-5.714t-13.143 5.714l-266.286 266.286q-5.714 5.714-5.714 13.143t5.714 13.143l266.286 266.286q5.714 5.714 13.143 5.714t13.143-5.714l28.571-28.571q5.714-5.714 5.714-13.143z" horiz-adv-x="366" />
<glyph unicode="&#xe62c;" d="M340 402.286q0-7.429-5.714-13.143l-266.286-266.286q-5.714-5.714-13.143-5.714t-13.143 5.714l-28.571 28.571q-5.714 5.714-5.714 13.143t5.714 13.143l224.571 224.571-224.571 224.571q-5.714 5.714-5.714 13.143t5.714 13.143l28.571 28.571q5.714 5.714 13.143 5.714t13.143-5.714l266.286-266.286q5.714-5.714 5.714-13.143z" horiz-adv-x="366" />
<glyph unicode="&#xe62d;" d="M614.286 274.286q0-7.429-5.714-13.143l-28.571-28.571q-5.714-5.714-13.143-5.714t-13.143 5.714l-224.571 224.571-224.571-224.571q-5.714-5.714-13.143-5.714t-13.143 5.714l-28.571 28.571q-5.714 5.714-5.714 13.143t5.714 13.143l266.286 266.286q5.714 5.714 13.143 5.714t13.143-5.714l266.286-266.286q5.714-5.714 5.714-13.143z" horiz-adv-x="658" />
<glyph unicode="&#xe62e;" d="M614.286 530.286q0-7.429-5.714-13.143l-266.286-266.286q-5.714-5.714-13.143-5.714t-13.143 5.714l-266.286 266.286q-5.714 5.714-5.714 13.143t5.714 13.143l28.571 28.571q5.714 5.714 13.143 5.714t13.143-5.714l224.571-224.571 224.571 224.571q5.714 5.714 13.143 5.714t13.143-5.714l28.571-28.571q5.714-5.714 5.714-13.143z" horiz-adv-x="658" />
<glyph unicode="&#xe62f;" d="M230.857 317.714l86.857-86.857-29.714-29.714h-32v54.857h-54.857v32zM467.429 540.571q8-7.429-1.714-17.143l-166.286-166.286q-9.714-9.714-17.143-1.714-8 7.429 1.714 17.143l166.286 166.286q9.714 9.714 17.143 1.714zM310.857 146.286l310.857 310.857-164.571 164.571-310.857-310.857v-164.571h164.571zM658.286 493.714l52.571 52.571q16 16 16 38.857t-16 38.857l-86.857 86.857q-16 16-38.857 16t-38.857-16l-52.571-52.571zM877.714 713.143v-548.571q0-68-48.286-116.286t-116.286-48.286h-548.571q-68 0-116.286 48.286t-48.286 116.286v548.571q0 68 48.286 116.286t116.286 48.286h548.571q68 0 116.286-48.286t48.286-116.286z" horiz-adv-x="878" />
<glyph unicode="&#xe630;" d="M391.429 208.571l350.857 350.857q10.857 10.857 10.857 25.714t-10.857 25.714l-58.286 58.286q-10.857 10.857-25.714 10.857t-25.714-10.857l-266.857-266.857-120.571 120.571q-10.857 10.857-25.714 10.857t-25.714-10.857l-58.286-58.286q-10.857-10.857-10.857-25.714t10.857-25.714l204.571-204.571q10.857-10.857 25.714-10.857t25.714 10.857zM877.714 713.143v-548.571q0-68-48.286-116.286t-116.286-48.286h-548.571q-68 0-116.286 48.286t-48.286 116.286v548.571q0 68 48.286 116.286t116.286 48.286h548.571q68 0 116.286-48.286t48.286-116.286z" horiz-adv-x="878" />
<glyph unicode="&#xe631;" d="M621.714 402.286v365.714h-256v-649.714q68 36 121.714 78.286 134.286 105.143 134.286 205.714zM731.429 841.143v-438.857q0-49.143-19.143-97.429t-47.429-85.714-67.429-72.857-72.286-58.857-69.143-44.286-51.143-28.286-24.286-11.429q-6.857-3.429-14.857-3.429t-14.857 3.429q-9.143 4-24.286 11.429t-51.143 28.286-69.143 44.286-72.286 58.857-67.429 72.857-47.429 85.714-19.143 97.429v438.857q0 14.857 10.857 25.714t25.714 10.857h658.286q14.857 0 25.714-10.857t10.857-25.714z" horiz-adv-x="731" />
<glyph unicode="&#xe632;" d="M666.857 585.143q10.286-104-74.857-147.429 66.857-16 100-58.857t25.714-122.286q-4-40.571-18.571-71.429t-36.857-50.857-55.429-33.429-69.429-19.714-83.143-8.571v-145.714h-88v143.429q-45.714 0-69.714 0.571v-144h-88v145.714q-10.286 0-30.857 0.286t-31.429 0.286h-114.286l17.714 104.571h63.429q28.571 0 33.143 29.143v229.714h9.143q-3.429 0.571-9.143 0.571v164q-7.429 38.857-50.857 38.857h-63.429v93.714l121.143-0.571q36.571 0 55.429 0.571v144h88v-141.143q46.857 1.143 69.714 1.143v140h88v-144q45.143-4 80-12.857t64.571-25.714 47.143-44.571 20.857-65.429zM544 273.714q0 20.571-8.571 36.571t-21.143 26.286-32.857 17.429-37.429 10.571-42.286 5.143-39.429 1.714-36.857-0.571-27.143-0.571v-193.143q4.571 0 21.143-0.286t27.429-0.286 30.286 0.857 33.429 2.286 32.571 4.857 31.714 8 27.143 12 22.571 17.143 14 22.857 5.429 29.143zM503.429 545.714q0 18.857-7.143 33.429t-17.429 24-27.429 16-31.429 9.429-35.143 4.571-33.143 1.429-30.857-0.571-22.571-0.286v-175.429q2.857 0 19.714-0.286t26.571 0 28.571 1.143 31.429 3.143 29.429 6.286 27.714 10.571 21.143 15.429 15.429 22 5.143 29.143z" horiz-adv-x="731" />
<glyph unicode="&#xe633;" d="M219.429 146.286q0-45.714-32-77.714t-77.714-32-77.714 32-32 77.714 32 77.714 77.714 32 77.714-32 32-77.714zM219.429 438.857q0-45.714-32-77.714t-77.714-32-77.714 32-32 77.714 32 77.714 77.714 32 77.714-32 32-77.714zM1024 201.143v-109.714q0-7.429-5.429-12.857t-12.857-5.429h-694.857q-7.429 0-12.857 5.429t-5.429 12.857v109.714q0 7.429 5.429 12.857t12.857 5.429h694.857q7.429 0 12.857-5.429t5.429-12.857zM219.429 731.428q0-45.714-32-77.714t-77.714-32-77.714 32-32 77.714 32 77.714 77.714 32 77.714-32 32-77.714zM1024 493.714v-109.714q0-7.429-5.429-12.857t-12.857-5.429h-694.857q-7.429 0-12.857 5.429t-5.429 12.857v109.714q0 7.429 5.429 12.857t12.857 5.429h694.857q7.429 0 12.857-5.429t5.429-12.857zM1024 786.286v-109.714q0-7.429-5.429-12.857t-12.857-5.429h-694.857q-7.429 0-12.857 5.429t-5.429 12.857v109.714q0 7.429 5.429 12.857t12.857 5.429h694.857q7.429 0 12.857-5.429t5.429-12.857z" />
<glyph unicode="&#xe634;" d="M293.714 268l46.286 170.857h-90.857l42.857-171.429q0.571-0.571 0.571-1.714t0.571-1.714q0 0.571 0.286 2t0.286 2zM360 512l20 73.143h-166.857l18.286-73.143h128.571zM469.714 512h79.429l-20 73.143h-40zM726.286 267.428l44.571 171.429h-92.571l46.286-170.857q0-0.571 0.286-2t0.857-2q0 0.571 0.286 1.714t0.286 1.714zM789.714 512l18.857 73.143h-169.714l19.429-73.143h131.429zM1024 493.714v-36.571q0-8-5.143-13.143t-13.143-5.143h-121.714l-93.714-352q-4-13.714-17.714-13.714h-90.857q-13.714 0-17.714 13.714l-94.857 352h-119.429l-95.429-352q-4-13.714-17.714-13.714h-90.857q-6.286 0-11.143 4t-6 9.714l-91.429 352h-118.857q-8 0-13.143 5.143t-5.143 13.143v36.571q0 8 5.143 13.143t13.143 5.143h100l-18.857 73.143h-81.143q-8 0-13.143 5.143t-5.143 13.143v36.571q0 8 5.143 13.143t13.143 5.143h62.286l-50.857 196.571q-2.857 8.571 2.857 16 5.714 6.857 14.857 6.857h78.286q14.857 0 17.714-13.714l51.429-205.714h205.143l55.429 205.714q4 13.714 17.714 13.714h72q13.714 0 17.714-13.714l56-205.714h208.571l53.143 205.714q2.857 13.714 17.714 13.714h78.286q9.143 0 14.857-6.857 5.714-7.429 2.857-16l-52-196.571h63.429q8 0 13.143-5.143t5.143-13.143v-36.571q0-8-5.143-13.143t-13.143-5.143h-82.857l-19.429-73.143h102.286q8 0 13.143-5.143t5.143-13.143z" />
<glyph unicode="&#xe635;" d="M500.571 113.714q0 12-2.571 23.143t-5.429 20.571-10 19.714-12 17.429-15.143 16.857-15.714 14.571-18.286 14.571-17.714 13.143-18.857 13.143-17.429 12q-9.714 1.143-28.571 1.143-30.857 0-60.571-4t-61.714-14.286-56-26.286-39.429-42.857-15.429-61.143q0-38.857 20.286-69.429t53.143-48 68.857-26 72.571-8.571q33.714 0 64.286 7.143t57.429 22.286 42.571 42 15.714 62.857zM432 606.286q0 34.286-9.429 72.857t-26.857 74.571-48 59.429-68.286 23.429q-53.143 0-82.286-39.429t-29.143-94.286q0-26.857 6.571-56.571t20.286-59.429 32-53.429 44.571-38.571 55.429-14.857q55.429 0 80.286 34.571t24.857 91.714zM357.143 877.714h249.714l-77.143-45.143h-77.143q40.571-25.714 62.857-72t22.286-96.571q0-42.286-13.143-75.143t-32-52.857-37.714-36.857-32-34.857-13.143-38.571q0-14.857 9.429-29.143t24.571-27.429 33.429-27.429 36.571-31.714 33.429-37.714 24.571-48.571 9.429-60.857q0-91.429-80-161.143-86.857-74.857-240-74.857-33.714 0-68.286 5.714t-69.714 19.143-62 33.143-44 50.857-17.143 69.429q0 34.857 21.143 77.143 18.286 36.571 54.857 63.143t82.857 40.571 88.571 20.571 85.714 7.714q-36.571 47.429-36.571 85.143 0 6.857 1.143 13.429t2.857 11.143 4.571 12.286 4 12.286q-22.857-2.857-40-2.857-85.143 0-146 56t-60.857 140.571q0 80 54.286 143.143t133.714 80.857q53.714 11.429 106.857 11.429zM950.857 731.428v-73.143h-146.286v-146.286h-73.143v146.286h-146.286v73.143h146.286v146.286h73.143v-146.286h146.286z" horiz-adv-x="951" />
<glyph unicode="&#xe636;" d="M877.714 438.857q0-89.143-34.857-170.286t-93.714-140-140-93.714-170.286-34.857q-98.286 0-186.857 41.429t-150.857 116.857q-4 5.714-3.714 12.857t4.857 11.714l78.286 78.857q5.714 5.143 14.286 5.143 9.143-1.143 13.143-6.857 41.714-54.286 102.286-84t128.571-29.714q59.429 0 113.429 23.143t93.429 62.571 62.571 93.429 23.143 113.429-23.143 113.429-62.571 93.429-93.429 62.571-113.429 23.143q-56 0-107.429-20.286t-91.429-58l78.286-78.857q17.714-17.143 8-39.429-9.714-22.857-33.714-22.857h-256q-14.857 0-25.714 10.857t-10.857 25.714v256q0 24 22.857 33.714 22.286 9.714 39.429-8l74.286-73.714q61.143 57.714 139.714 89.429t162.571 31.714q89.143 0 170.286-34.857t140-93.714 93.714-140 34.857-170.286z" horiz-adv-x="878" />
<glyph unicode="&#xe637;" d="M1024 384v475.429q0 7.429-5.429 12.857t-12.857 5.429h-914.286q-7.429 0-12.857-5.429t-5.429-12.857v-475.429q0-7.429 5.429-12.857t12.857-5.429h914.286q7.429 0 12.857 5.429t5.429 12.857zM1097.143 859.428v-621.714q0-37.714-26.857-64.571t-64.571-26.857h-310.857q0-21.143 9.143-44.286t18.286-40.571 9.143-24.857q0-14.857-10.857-25.714t-25.714-10.857h-292.571q-14.857 0-25.714 10.857t-10.857 25.714q0 8 9.143 25.143t18.286 40 9.143 44.571h-310.857q-37.714 0-64.571 26.857t-26.857 64.571v621.714q0 37.714 26.857 64.571t64.571 26.857h914.286q37.714 0 64.571-26.857t26.857-64.571z" horiz-adv-x="1097" />
<glyph unicode="&#xe638;" d="M731.429 310.857v109.714q0 8-5.143 13.143t-13.143 5.143h-128v128q0 8-5.143 13.143t-13.143 5.143h-109.714q-8 0-13.143-5.143t-5.143-13.143v-128h-128q-8 0-13.143-5.143t-5.143-13.143v-109.714q0-8 5.143-13.143t13.143-5.143h128v-128q0-8 5.143-13.143t13.143-5.143h109.714q8 0 13.143 5.143t5.143 13.143v128h128q8 0 13.143 5.143t5.143 13.143zM365.714 731.428h292.571v73.143h-292.571v-73.143zM146.286 731.428v-731.429h-18.286q-52.571 0-90.286 37.714t-37.714 90.286v475.429q0 52.571 37.714 90.286t90.286 37.714h18.286zM822.857 731.428v-731.429h-621.714v731.429h91.429v91.429q0 22.857 16 38.857t38.857 16h329.143q22.857 0 38.857-16t16-38.857v-91.429h91.429zM1024 603.428v-475.429q0-52.571-37.714-90.286t-90.286-37.714h-18.286v731.429h18.286q52.571 0 90.286-37.714t37.714-90.286z" />
<glyph unicode="&#xe639;" d="M1024 274.286v-109.714q0-7.429-5.429-12.857t-12.857-5.429h-786.286v-109.714q0-7.429-5.429-12.857t-12.857-5.429q-6.857 0-13.714 5.714l-182.286 182.857q-5.143 5.143-5.143 12.571 0 8 5.143 13.143l182.857 182.857q5.143 5.143 13.143 5.143 7.429 0 12.857-5.429t5.429-12.857v-109.714h786.286q7.429 0 12.857-5.429t5.429-12.857zM1024 585.143q0-8-5.143-13.143l-182.857-182.857q-5.143-5.143-13.143-5.143-7.429 0-12.857 5.429t-5.429 12.857v109.714h-786.286q-7.429 0-12.857 5.429t-5.429 12.857v109.714q0 7.429 5.429 12.857t12.857 5.429h786.286v109.714q0 8 5.143 13.143t13.143 5.143q6.857 0 13.714-5.714l182.286-182.286q5.143-5.143 5.143-13.143z" />
<glyph unicode="&#xe63a;" d="M219.429 182.857q0-14.857-10.857-25.714t-25.714-10.857-25.714 10.857-10.857 25.714 10.857 25.714 25.714 10.857 25.714-10.857 10.857-25.714zM804.571 148q0-69.143-41.714-108.571t-110.857-39.429h-499.429q-69.143 0-110.857 39.429t-41.714 108.571q0 38.857 3.143 74.857t13.714 78.857 27.143 75.714 46.286 58.857 68.571 34.571q-12.571-29.714-12.571-68.571v-116q-33.143-11.429-53.143-40t-20-63.429q0-45.714 32-77.714t77.714-32 77.714 32 32 77.714q0 34.857-20.286 63.429t-52.857 40v116q0 35.429 14.286 53.143 75.429-59.429 168.571-59.429t168.571 59.429q14.286-17.714 14.286-53.143v-36.571q-60.571 0-103.429-42.857t-42.857-103.429v-50.857q-18.286-16.571-18.286-40.571 0-22.857 16-38.857t38.857-16 38.857 16 16 38.857q0 24-18.286 40.571v50.857q0 29.714 21.714 51.429t51.429 21.714 51.429-21.714 21.714-51.429v-50.857q-18.286-16.571-18.286-40.571 0-22.857 16-38.857t38.857-16 38.857 16 16 38.857q0 24-18.286 40.571v50.857q0 38.857-19.714 72.857t-53.429 53.429q0 5.714 0.286 24.286t0 27.429-1.429 23.714-4 26.857-7.429 22.857q38.857-8.571 68.571-34.571t46.286-58.857 27.143-75.714 13.714-78.857 3.143-74.857zM621.714 658.286q0-90.857-64.286-155.143t-155.143-64.286-155.143 64.286-64.286 155.143 64.286 155.143 155.143 64.286 155.143-64.286 64.286-155.143z" horiz-adv-x="805" />
<glyph unicode="&#xe63b;" d="M731.429 548.571q0 14.857-10.857 25.714t-25.714 10.857-25.714-10.857-10.857-25.714 10.857-25.714 25.714-10.857 25.714 10.857 10.857 25.714zM804.571 548.571q0-35.429-20.286-63.429t-52.857-40v-225.714q0-90.857-75.143-155.143t-180.857-64.286-180.857 64.286-75.143 155.143v75.429q-93.714 11.429-156.571 73.143t-62.857 144v292.571q0 14.857 10.857 25.714t25.714 10.857q3.429 0 9.143-1.143 9.714 17.143 26.857 27.429t37.143 10.286q30.286 0 51.714-21.429t21.429-51.714-21.429-51.714-51.714-21.429q-18.857 0-36.571 10.286v-229.714q0-60.571 53.714-103.429t129.143-42.857 129.143 42.857 53.714 103.429v229.714q-17.714-10.286-36.571-10.286-30.286 0-51.714 21.429t-21.429 51.714 21.429 51.714 51.714 21.429q20 0 37.143-10.286t26.857-27.429q5.714 1.143 9.143 1.143 14.857 0 25.714-10.857t10.857-25.714v-292.571q0-82.286-62.857-144t-156.571-73.143v-75.429q0-60.571 53.714-103.429t129.143-42.857 129.143 42.857 53.714 103.429v225.714q-32.571 12-52.857 40t-20.286 63.429q0 45.714 32 77.714t77.714 32 77.714-32 32-77.714z" horiz-adv-x="805" />
<glyph unicode="&#xe63c;" d="M365.714 731.428h292.571v73.143h-292.571v-73.143zM164.571 731.428v-731.429h-36.571q-52.571 0-90.286 37.714t-37.714 90.286v475.429q0 52.571 37.714 90.286t90.286 37.714h36.571zM804.571 731.428v-731.429h-585.143v731.429h73.143v91.429q0 22.857 16 38.857t38.857 16h329.143q22.857 0 38.857-16t16-38.857v-91.429h73.143zM1024 603.428v-475.429q0-52.571-37.714-90.286t-90.286-37.714h-36.571v731.429h36.571q52.571 0 90.286-37.714t37.714-90.286z" />
<glyph unicode="&#xe63d;" d="M365.714 914.286v-365.714q0-34.857-20.286-63.429t-52.857-40v-445.143q0-29.714-21.714-51.429t-51.429-21.714h-73.143q-29.714 0-51.429 21.714t-21.714 51.429v445.143q-32.571 11.429-52.857 40t-20.286 63.429v365.714q0 14.857 10.857 25.714t25.714 10.857 25.714-10.857 10.857-25.714v-237.714q0-14.857 10.857-25.714t25.714-10.857 25.714 10.857 10.857 25.714v237.714q0 14.857 10.857 25.714t25.714 10.857 25.714-10.857 10.857-25.714v-237.714q0-14.857 10.857-25.714t25.714-10.857 25.714 10.857 10.857 25.714v237.714q0 14.857 10.857 25.714t25.714 10.857 25.714-10.857 10.857-25.714zM804.571 914.286v-914.286q0-29.714-21.714-51.429t-51.429-21.714h-73.143q-29.714 0-51.429 21.714t-21.714 51.429v292.571h-128q-7.429 0-12.857 5.429t-5.429 12.857v457.143q0 75.429 53.714 129.143t129.143 53.714h146.286q14.857 0 25.714-10.857t10.857-25.714z" horiz-adv-x="805" />
<glyph unicode="&#xe63e;" d="M950.857 585.143q0 45.714-32 77.714t-77.714 32h-36.571v-219.429h36.571q45.714 0 77.714 32t32 77.714zM0 146.286h1024q0-60.571-42.857-103.429t-103.429-42.857h-731.429q-60.571 0-103.429 42.857t-42.857 103.429zM1060.571 585.143q0-90.857-64.286-155.143t-155.143-64.286h-36.571v-18.286q0-52.571-37.714-90.286t-90.286-37.714h-402.286q-52.571 0-90.286 37.714t-37.714 90.286v420.571q0 14.857 10.857 25.714t25.714 10.857h658.286q90.857 0 155.143-64.286t64.286-155.143z" horiz-adv-x="1097" />
<glyph unicode="&#xe63f;" d="M645.714 609.714l9.143 100h-505.143l26.857-305.143h349.714l-12.571-130.286-112.571-30.286-112 30.286-7.429 80h-100l12.571-158.857 206.857-57.143h2.286v0.571l205.143 56.571 28.571 310.857h-368l-8.571 103.429h385.143zM0 877.714h804.571l-73.143-821.714-330.286-92.571-328 92.571z" horiz-adv-x="805" />
<glyph unicode="&#xe640;" d="M1024 182.857v-73.143q0-14.857-10.857-25.714t-25.714-10.857h-950.857q-14.857 0-25.714 10.857t-10.857 25.714v73.143q0 14.857 10.857 25.714t25.714 10.857h950.857q14.857 0 25.714-10.857t10.857-25.714zM1024 402.286v-73.143q0-14.857-10.857-25.714t-25.714-10.857h-950.857q-14.857 0-25.714 10.857t-10.857 25.714v73.143q0 14.857 10.857 25.714t25.714 10.857h950.857q14.857 0 25.714-10.857t10.857-25.714zM1024 621.714v-73.143q0-14.857-10.857-25.714t-25.714-10.857h-950.857q-14.857 0-25.714 10.857t-10.857 25.714v73.143q0 14.857 10.857 25.714t25.714 10.857h950.857q14.857 0 25.714-10.857t10.857-25.714zM1024 841.143v-73.143q0-14.857-10.857-25.714t-25.714-10.857h-950.857q-14.857 0-25.714 10.857t-10.857 25.714v73.143q0 14.857 10.857 25.714t25.714 10.857h950.857q14.857 0 25.714-10.857t10.857-25.714z" />
<glyph unicode="&#xe641;" d="M229.714 546.857l282.286-174.286-195.429-162.857-280 182.286zM793.143 229.714v-61.714l-280-167.429v-0.571l-0.571 0.571-0.571-0.571v0.571l-279.429 167.429v61.714l84-54.857 195.429 162.286v1.143l0.571-0.571 0.571 0.571v-1.143l196-162.286zM316.571 883.428l195.429-162.857-282.286-173.714-193.143 154.286zM794.286 546.857l193.143-154.857-279.429-182.286-196 162.857zM708 883.428l279.429-182.286-193.143-154.286-282.286 173.714z" />
<glyph unicode="&#xe642;" d="M554.857 240v-120.571q0-38.286-22.286-38.286-13.143 0-25.714 12.571v172q12.571 12.571 25.714 12.571 22.286 0 22.286-38.286zM748 239.428v-26.286h-51.429v26.286q0 38.857 25.714 38.857t25.714-38.857zM196 364h61.143v53.714h-178.286v-53.714h60v-325.143h57.143v325.143zM360.571 38.857h50.857v282.286h-50.857v-216q-17.143-24-32.571-24-10.286 0-12 12-0.571 1.714-0.571 20v208h-50.857v-223.429q0-28 4.571-41.714 6.857-21.143 33.143-21.143 27.429 0 58.286 34.857v-30.857zM605.714 123.428v112.571q0 41.714-5.143 56.571-9.714 32-40.571 32-28.571 0-53.143-30.857v124h-50.857v-378.857h50.857v27.429q25.714-31.429 53.143-31.429 30.857 0 40.571 31.429 5.143 15.429 5.143 57.143zM798.857 129.143v7.429h-52q0-29.143-1.143-34.857-4-20.571-22.857-20.571-26.286 0-26.286 39.429v49.714h102.286v58.857q0 45.143-15.429 66.286-22.286 29.143-60.571 29.143-38.857 0-61.143-29.143-16-21.143-16-66.286v-98.857q0-45.143 16.571-66.286 22.286-29.143 61.714-29.143 41.143 0 61.714 30.286 10.286 15.429 12 30.857 1.143 5.143 1.143 33.143zM451.429 650.857v120q0 39.429-24.571 39.429t-24.571-39.429v-120q0-40 24.571-40t24.571 40zM862.286 221.714q0-133.714-14.857-200-8-33.714-33.143-56.571t-58.286-26.286q-105.143-12-317.143-12t-317.143 12q-33.143 3.429-58.571 26.286t-32.857 56.571q-14.857 64-14.857 200 0 133.714 14.857 200 8 33.714 33.143 56.571t58.857 26.857q104.571 11.429 316.571 11.429t317.143-11.429q33.143-4 58.571-26.857t32.857-56.571q14.857-64 14.857-200zM292 950.857h58.286l-69.143-228v-154.857h-57.143v154.857q-8 42.286-34.857 121.143-21.143 58.857-37.143 106.857h60.571l40.571-150.286zM503.429 760.571v-100q0-46.286-16-67.429-21.143-29.143-60.571-29.143-38.286 0-60 29.143-16 21.714-16 67.429v100q0 45.714 16 66.857 21.714 29.143 60 29.143 39.429 0 60.571-29.143 16-21.143 16-66.857zM694.857 853.143v-285.143h-52v31.429q-30.286-35.429-58.857-35.429-26.286 0-33.714 21.143-4.571 13.714-4.571 42.857v225.143h52v-209.714q0-18.857 0.571-20 1.714-12.571 12-12.571 15.429 0 32.571 24.571v217.714h52z" horiz-adv-x="878" />
<glyph unicode="&#xe643;" d="M877.714 438.857q0-119.429-58.857-220.286t-159.714-159.714-220.286-58.857-220.286 58.857-159.714 159.714-58.857 220.286 58.857 220.286 159.714 159.714 220.286 58.857 220.286-58.857 159.714-159.714 58.857-220.286z" horiz-adv-x="878" />
<glyph unicode="&#xe644;" d="M950.857 274.286v-18.286q0-75.429-53.714-129.143t-129.143-53.714h-73.143q-75.429 0-129.143 53.714t-53.714 129.143v274.286h-128q-1.143-58.286-8.286-108.857t-17.429-89.143-27.714-72.286-32.571-56.857-38.571-44.286-39.714-33.429-42.286-25.143-39.429-18.286-37.429-14.571q-2.286-1.143-18.286-7.429-4.571-1.143-6.857-1.143-12.571 0-17.143 11.429l-40.571 101.714q-2.857 7.429 0 14.286t9.714 9.714q4 1.714 11.429 4.286t10.286 3.714q17.714 6.857 26.571 10.571t25.429 11.429 26 14.857 24 18.571 23.143 24.286 19.714 30.571 17.429 39.143 12.857 47.714 9.714 58.857 3.714 70.286h-146.286q-8 0-13.143 5.143t-5.143 13.143v91.429q0 8 5.143 13.143t13.143 5.143h694.857q8 0 13.143-5.143t5.143-13.143v-91.429q0-8-5.143-13.143t-13.143-5.143h-128v-292.571q0-14.857 10.857-25.714t25.714-10.857h73.143q14.857 0 25.714 10.857t10.857 25.714v36.571q0 8 5.143 13.143t13.143 5.143h109.714q8 0 13.143-5.143t5.143-13.143zM731.429 859.428v-91.429q0-8-5.143-13.143t-13.143-5.143h-548.571q-8 0-13.143 5.143t-5.143 13.143v91.429q0 8 5.143 13.143t13.143 5.143h548.571q8 0 13.143-5.143t5.143-13.143z" horiz-adv-x="951" />
<glyph unicode="&#xe645;" d="M832 768v128h-640v-128h-192v-128c0-106.038 85.958-192 192-192 20.076 0 39.43 3.086 57.62 8.802 46.174-66.008 116.608-113.796 198.38-130.396v-198.406h-64c-70.694 0-128-57.306-128-128h512c0 70.694-57.306 128-128 128h-64v198.406c81.772 16.6 152.206 64.386 198.38 130.396 18.19-5.716 37.544-8.802 57.62-8.802 106.042 0 192 85.962 192 192v128h-192zM192 524c-63.962 0-116 52.038-116 116v64h116v-64c0-40.186 7.43-78.632 20.954-114.068-6.802-1.246-13.798-1.932-20.954-1.932zM948 640c0-63.962-52.038-116-116-116-7.156 0-14.152 0.686-20.954 1.932 13.524 35.436 20.954 73.882 20.954 114.068v64h116v-64z" />
<glyph unicode="&#xe646;" d="M832 640h-64v96c0 88.366-171.922 160-384 160s-384-71.634-384-160v-576c0-88.366 171.922-160 384-160s384 71.634 384 160v96h64c105.6 0 192 86.4 192 192s-86.4 192-192 192zM176.056 770.398c57.942 19.090 131.79 29.602 207.944 29.602s150.004-10.512 207.944-29.602c36.994-12.188 59.408-25.246 71.41-34.398-12.002-9.152-34.416-22.208-71.41-34.398-57.94-19.090-131.79-29.602-207.944-29.602s-150.002 10.512-207.944 29.602c-36.994 12.19-59.408 25.246-71.41 34.398 12.002 9.152 34.416 22.208 71.41 34.398zM904.364 391.636c-8.828-8.828-27.89-23.636-56.364-23.636h-80v160h80c28.474 0 47.536-14.81 56.364-23.638s23.636-27.888 23.636-56.362-14.808-47.536-23.636-56.364z" />
<glyph unicode="&#xe647;" d="M344.571 73.143h-98.286q-7.429 0-12.857 5.143t-5.429 13.143v188.571h-164.571q-7.429 0-12.857 5.143t-5.429 13.143v58.857q0 7.429 5.429 12.857t12.857 5.429h164.571v48.571h-164.571q-7.429 0-12.857 5.143t-5.429 13.143v59.429q0 7.429 5.429 12.857t12.857 5.429h122.286l-183.429 330.286q-4.571 9.143 0 18.286 5.714 9.143 16 9.143h110.857q10.857 0 16.571-10.286l122.857-242.857q10.857-21.714 32-71.429 5.714 13.714 17.429 38.857t15.714 34.857l109.143 240q4.571 10.857 16.571 10.857h109.143q9.714 0 15.429-9.143 5.143-8 0.571-17.714l-178.857-330.857h122.857q7.429 0 12.857-5.429t5.429-12.857v-59.429q0-8-5.429-13.143t-12.857-5.143h-165.714v-48.571h165.714q7.429 0 12.857-5.429t5.429-12.857v-58.857q0-8-5.429-13.143t-12.857-5.143h-165.714v-188.571q0-7.429-5.429-12.857t-12.857-5.429z" horiz-adv-x="586" />
<glyph unicode="&#xe648;" d="M953.396 885.358l-4.028 4.042c-94.148 94.134-248.194 94.134-342.326 0l-218.106-218.136c-94.134-94.132-94.134-248.176 0-342.31l4.026-4.026c7.832-7.848 16.146-14.924 24.736-21.458l79.848 79.85c-9.302 5.494-18.126 12.072-26.116 20.060l-4.042 4.042c-51.114 51.098-51.114 134.272 0 185.39l218.128 218.112c51.116 51.118 134.274 51.118 185.386 0l4.042-4.024c51.1-51.116 51.1-134.292 0-185.39l-98.686-98.686c17.132-42.308 25.248-87.4 24.538-132.386l152.604 152.604c94.134 94.136 94.134 248.178-0.004 342.316zM631.042 571.066c-7.832 7.832-16.146 14.922-24.736 21.44l-79.848-79.832c9.304-5.496 18.126-12.074 26.116-20.062l4.042-4.040c51.116-51.116 51.116-134.272 0-185.388l-218.13-218.134c-51.118-51.102-134.276-51.102-185.388 0l-4.042 4.042c-51.098 51.12-51.098 134.276 0 185.388l98.688 98.686c-17.134 42.306-25.246 87.402-24.538 132.386l-152.602-152.598c-94.136-94.132-94.136-248.178 0-342.324l4.026-4.032c94.152-94.128 248.192-94.128 342.328 0l218.11 218.118c94.134 94.132 94.134 248.194 0 342.326l-4.026 4.024z" />
<glyph unicode="&#xe649;" d="M761.862-64c113.726 206.032 132.888 520.306-313.862 509.824v-253.824l-384 384 384 384v-248.372c534.962 13.942 594.57-472.214 313.862-775.628z" />
<glyph unicode="&#xe64a;" d="M576 711.628v248.372l384-384-384-384v253.824c-446.75 10.482-427.588-303.792-313.86-509.824-280.712 303.414-221.1 789.57 313.86 775.628z" />
<glyph unicode="&#xe64b;" d="M262.14 960c-113.728-206.032-132.89-520.304 313.86-509.824v253.824l384-384-384-384v248.372c-534.96-13.942-594.572 472.214-313.86 775.628z" />
<glyph unicode="&#xe64c;" d="M448 184.372v-248.372l-384 384 384 384v-253.824c446.75-10.48 427.588 303.792 313.862 509.824 280.71-303.414 221.1-789.57-313.862-775.628z" />
<glyph unicode="&#xe64d;" d="M513.143 682.286v-58.286q0-8-5.143-13.143t-13.143-5.143h-96q-13.143-82.286-73.714-133.714t-157.714-62.857q95.429-101.714 262.286-306.286 8-9.143 2.286-19.429-4.571-10.286-16.571-10.286h-111.429q-9.143 0-14.286 6.857-174.857 209.714-284.571 326.286-5.143 5.143-5.143 12.571v72.571q0 7.429 5.429 12.857t12.857 5.429h64q75.429 0 121.429 24.571t58.571 71.429h-244q-8 0-13.143 5.143t-5.143 13.143v58.286q0 8 5.143 13.143t13.143 5.143h236q-32.571 64.571-153.143 64.571h-82.857q-7.429 0-12.857 5.429t-5.429 12.857v76q0 8 5.143 13.143t13.143 5.143h475.429q8 0 13.143-5.143t5.143-13.143v-58.286q0-8-5.143-13.143t-13.143-5.143h-133.143q26.857-34.857 36.571-82.286h97.714q8 0 13.143-5.143t5.143-13.143z" horiz-adv-x="513" />
<glyph unicode="&#xe64e;" d="M558.857 273.714q0-87.429-56.857-150.571t-147.714-78v-100q0-8-5.143-13.143t-13.143-5.143h-77.143q-7.429 0-12.857 5.429t-5.429 12.857v100q-37.714 5.143-72.857 17.714t-58 25.429-42.286 27.429-26.571 21.429-10 10.286q-9.714 12-1.143 23.429l58.857 77.143q4 5.714 13.143 6.857 8.571 1.143 13.714-5.143l1.143-1.143q64.571-56.571 138.857-71.429 21.143-4.571 42.286-4.571 46.286 0 81.429 24.571t35.143 69.714q0 16-8.571 30.286t-19.143 24-33.429 21.429-37.714 18.286-45.714 18.571q-22.286 9.143-35.143 14.286t-35.143 15.143-35.714 17.714-32.286 20.286-30.571 24.286-24.857 28-20.286 33.143-12 38-4.857 44.571q0 78.857 56 138.286t145.714 76.571v102.857q0 7.429 5.429 12.857t12.857 5.429h77.143q8 0 13.143-5.143t5.143-13.143v-100.571q32.571-3.429 63.143-13.143t49.714-19.143 36.286-21.429 22.286-16.571 8.571-8q9.714-10.286 2.857-21.714l-46.286-83.429q-4.571-8.571-13.143-9.143-8-1.714-15.429 4-1.714 1.714-8.286 6.857t-22.286 15.143-33.429 18.286-42.571 14.857-48.857 6.571q-54.286 0-88.571-24.571t-34.286-63.429q0-14.857 4.857-27.429t16.857-23.714 22.571-18.857 32-17.714 34.571-15.429 40-15.714q30.286-11.429 46.286-18t43.429-20 43.143-24.286 35.429-28.571 30.286-36.286 18-43.714 7.429-53.714z" horiz-adv-x="585" />
<glyph unicode="&#xe64f;" d="M582.857 301.143v-209.714q0-8-5.143-13.143t-13.143-5.143h-546.286q-8 0-13.143 5.143t-5.143 13.143v85.714q0 7.429 5.429 12.857t12.857 5.429h55.429v218.857h-54.286q-8 0-13.143 5.429t-5.143 12.857v74.857q0 8 5.143 13.143t13.143 5.143h54.286v127.429q0 97.714 70.571 161.143t179.714 63.429q105.714 0 191.429-71.429 5.143-4.571 5.714-11.714t-4-12.857l-58.857-72.571q-5.143-6.286-12.571-6.857-7.429-1.143-13.143 4-2.857 2.857-14.857 10.857t-39.429 18.286-53.143 10.286q-48.571 0-78.286-26.857t-29.714-70.286v-122.857h174.286q7.429 0 12.857-5.143t5.429-13.143v-74.857q0-7.429-5.429-12.857t-12.857-5.429h-174.286v-216.571h236.571v103.429q0 7.429 5.143 12.857t13.143 5.429h92.571q8 0 13.143-5.429t5.143-12.857z" horiz-adv-x="585" />
<glyph unicode="&#xe650;" d="M557.714 204l20-90.857q1.714-6.857-1.714-12.857t-9.714-8.286l-2.857-0.571q-2.286-1.143-6-2t-9.143-2.571-12.286-3.143-14.571-2.857-17.143-2.857-19.143-2.571-20.857-1.714-22-0.571q-133.714 0-233.714 74.571t-136 200.857h-54.286q-7.429 0-12.857 5.429t-5.429 12.857v64.571q0 7.429 5.429 12.857t12.857 5.429h37.714q-1.143 32.571 0.571 60h-38.286q-8 0-13.143 5.143t-5.143 13.143v65.143q0 8 5.143 13.143t13.143 5.143h56q38.286 120 139.143 193.143t228.857 73.143q58.286 0 110.857-13.143 6.286-1.714 11.429-8.571 3.429-6.286 1.714-13.714l-24.571-90.857q-1.714-7.429-8-11.143t-13.714-1.429l-2.286 0.571q-2.286 0.571-6.571 1.429l-10 2t-12.857 2-14.857 1.714-16.571 1.429-16.857 0.571q-72 0-129.143-36.571t-85.714-100.571h267.429q9.143 0 14.286-6.857 5.714-6.857 4-14.857l-13.714-65.143q-2.857-14.857-18.286-14.857h-278.857q-1.714-21.143 0-60h262.286q8.571 0 14.286-6.857 5.143-6.857 3.429-15.429l-13.714-64q-1.143-6.286-6.286-10.571t-11.429-4.286h-221.143q27.429-66.857 85.429-106t130.571-39.143q10.286 0 20.571 0.857t19.143 2 16.857 2.571 14 2.857 10.571 2.571l6.857 1.714 2.857 1.143q7.429 2.857 14.857-1.143 6.857-4 8.571-12z" horiz-adv-x="585" />
<glyph unicode="&#xe651;" d="M791.498 415.908c-1.294 129.682 105.758 191.876 110.542 194.966-60.152 88.020-153.85 100.078-187.242 101.472-79.742 8.074-155.596-46.948-196.066-46.948-40.368 0-102.818 45.754-168.952 44.552-86.916-1.292-167.058-50.538-211.812-128.38-90.304-156.698-23.126-388.84 64.89-515.926 43.008-62.204 94.292-132.076 161.626-129.58 64.842 2.588 89.362 41.958 167.756 41.958s100.428-41.958 169.050-40.67c69.774 1.296 113.982 63.398 156.692 125.796 49.39 72.168 69.726 142.038 70.924 145.626-1.548 0.706-136.060 52.236-137.408 207.134zM662.562 796.478c35.738 43.358 59.86 103.512 53.28 163.522-51.478-2.096-113.878-34.29-150.81-77.55-33.142-38.376-62.148-99.626-54.374-158.436 57.466-4.484 116.128 29.204 151.904 72.464z" />
<glyph unicode="&#xe652;" d="M384 896h640v-128h-640v128zM384 512h640v-128h-640v128zM384 128h640v-128h-640v128zM0 832c0 70.692 57.308 128 128 128s128-57.308 128-128c0-70.692-57.308-128-128-128s-128 57.308-128 128zM0 448c0 70.692 57.308 128 128 128s128-57.308 128-128c0-70.692-57.308-128-128-128s-128 57.308-128 128zM0 64c0 70.692 57.308 128 128 128s128-57.308 128-128c0-70.692-57.308-128-128-128s-128 57.308-128 128z" />
<glyph unicode="&#xe653;" d="M64 768h896v-192h-896zM64 512h896v-192h-896zM64 256h896v-192h-896z" />
<glyph unicode="&#xe654;" d="M0 960h256v-256h-256zM384 896h640v-128h-640zM0 576h256v-256h-256zM384 512h640v-128h-640zM0 192h256v-256h-256zM384 128h640v-128h-640z" />
<glyph unicode="&#xe655;" d="M512 960c-282.77 0-512-229.23-512-512s229.23-512 512-512 512 229.23 512 512-229.23 512-512 512zM812.868 521.874c-33.958-191.296-223.708-353.296-280.78-390.31-57.088-37.006-109.154 14.822-128.038 53.994-21.616 44.708-86.41 286.94-103.368 307.020-16.964 20.038-67.876-20.080-67.876-20.080l-24.692 32.376c0 0 103.382 123.448 182.040 138.878 83.404 16.366 83.28-128.066 103.34-208.242 19.4-77.564 32.44-121.952 49.376-121.952 16.97 0 49.382 43.262 84.852 109.57 35.536 66.376-1.538 125.010-70.972 83.292 27.786 166.652 290.062 206.72 256.118 15.454z" />
<glyph unicode="&#xe656;" d="M717.548 960c-168.764-278.986-302.3-141.782-497.59-342.43-172.336-177.066-112.582-390.306 32.524-463.744 143.23 73.188 289.768 236.822 398.45 473.724 0 0 97.666-299.144-201.49-587.374 145.268-170.148 391.828-51.772 460.726 218.918 74.898 294.274-120.388 593.896-192.62 700.906zM97.012-6.242c0.116-2.906 3.422-57.758 75.366-57.758 52.344 0 317.832 144.678 454.266 520.204-206.438-365.214-506.12-455.838-529.632-462.446z" />
<glyph unicode="&#xe657;" d="M960 960l-448-128-448 128c0 0-4.5-51.698 0-128l448-140.090 448 140.090c4.498 76.302 0 128 0 128zM72.19 764.894c23.986-250.696 113.49-672.234 439.81-828.894 326.32 156.66 415.824 578.198 439.81 828.894l-439.81-165.358-439.81 165.358z" />
<glyph unicode="&#xe658;" d="M1024 384l-128 256h-192v128c0 35.2-28.8 64-64 64h-576c-35.2 0-64-28.8-64-64v-512l64-64h81.166c-10.898-18.832-17.166-40.678-17.166-64 0-70.692 57.308-128 128-128s128 57.308 128 128c0 23.322-6.268 45.168-17.166 64h354.334c-10.898-18.832-17.168-40.678-17.168-64 0-70.692 57.308-128 128-128s128 57.308 128 128c0 23.322-6.27 45.168-17.168 64h81.168v192zM704 384v160h132.668l80-160h-212.668z" />
<glyph unicode="&#xe659;" d="M768 320.032l-182.82 182.822 438.82 329.15-128.010 127.996-548.52-219.442-172.7 172.706c-49.78 49.778-119.302 61.706-154.502 26.508-35.198-35.198-23.268-104.726 26.51-154.5l172.686-172.684-219.464-548.582 127.99-128.006 329.19 438.868 182.826-182.828v-255.98h127.994l63.992 191.988 191.988 63.996v127.992l-255.98-0.004z" />
<glyph unicode="&#xe65a;" d="M874.040 810.038c96.702-96.704 149.96-225.28 149.96-362.040s-53.258-265.334-149.96-362.038c-96.706-96.702-225.28-149.96-362.040-149.96s-265.334 53.258-362.040 149.96c-96.702 96.704-149.96 225.278-149.96 362.038s53.254 265.336 149.96 362.040c96.706 96.704 225.28 149.962 362.040 149.962s265.334-53.258 362.040-149.962zM828.784 131.214c63.058 63.060 104.986 141.608 122.272 227.062-13.474-19.836-26.362-27.194-34.344 17.206-8.22 72.39-74.708 26.148-116.516 51.86-44.004-29.658-142.906 57.662-126.098-40.824 25.934-44.422 140.008 59.45 83.148-34.542-36.274-65.616-132.642-210.932-120.106-286.258 1.582-109.744-112.134-22.884-151.314 13.52-26.356 72.92-8.982 200.374-77.898 236.086-74.802 3.248-139.004 10.046-167.994 93.67-17.446 59.828 18.564 148.894 82.678 162.644 93.85 58.966 127.374-69.054 215.39-71.434 27.328 28.594 101.816 37.686 107.992 69.75-57.75 10.19 73.268 48.558-5.528 70.382-43.47-5.112-71.478-45.074-48.368-78.958-84.238-19.642-86.936 121.904-167.91 77.258-2.058-70.59-132.222-22.886-45.036-8.572 29.956 13.088-48.86 51.016-6.28 44.124 20.916 1.136 91.332 25.812 72.276 42.402 39.21 24.34 72.16-58.29 110.538 1.882 27.708 46.266-11.62 54.808-46.35 31.356-19.58 21.924 34.57 69.276 82.332 89.738 15.918 6.82 31.122 10.536 42.746 9.484 24.058-27.792 68.55-32.606 70.878 3.342-59.582 28.534-125.276 43.608-193.292 43.608-97.622 0-190.47-31.024-267.308-88.39 20.65-9.46 32.372-21.238 12.478-36.296-15.456-46.054-78.17-107.876-133.224-99.124-28.586-49.296-47.412-103.606-55.46-160.528 46.112-15.256 56.744-45.45 46.836-55.55-23.496-20.488-37.936-49.53-45.376-81.322 15.010-91.836 58.172-176.476 125.27-243.576 84.616-84.614 197.118-131.214 316.784-131.214 119.664 0 232.168 46.6 316.784 131.214z" />
<glyph unicode="&#xe65b;" d="M832 787.694c76.466 0 145.092 41.622 192 73.106v-595.69c-46.908-31.486-115.534-73.11-192-73.11s-145.092 22.67-192 54.156c-46.908 31.48-115.534 54.15-192 54.15s-145.090-38.916-192-70.396v595.69c46.91 31.484 115.534 70.4 192 70.4s145.092-22.668 192-54.152c46.908-31.484 115.534-54.154 192-54.154zM128 960c35.346 0 64-28.654 64-64v-960h-128v960c0 35.346 28.654 64 64 64z" />
<glyph unicode="&#xe65c;" d="M1024 562.95l-353.78 51.408-158.22 320.582-158.216-320.582-353.784-51.408 256-249.538-60.432-352.352 316.432 166.358 316.432-166.358-60.434 352.352 256.002 249.538z" />
</font>
</defs>
</svg>
